  0
SECTION
  2
HEADER
  9
$ACADVER
  1
AC1015
  9
$ACADMAINTVER
 70
     6
  9
$DWGCODEPAGE
  3
ANSI_1252
  9
$INSBASE
 10
0.0
 20
0.0
 30
0.0
  9
$EXTMIN
 10
0.0
 20
0.0
 30
0.0
  9
$EXTMAX
 10
297.0000000000002
 20
210.0000000000001
 30
0.0
  9
$LIMMIN
 10
0.0
 20
0.0
  9
$LIMMAX
 10
12.0
 20
9.0
  9
$ORTHOMODE
 70
     0
  9
$REGENMODE
 70
     1
  9
$FILLMODE
 70
     1
  9
$QTEXTMODE
 70
     0
  9
$MIRRTEXT
 70
     1
  9
$LTSCALE
 40
1.0
  9
$ATTMODE
 70
     1
  9
$TEXTSIZE
 40
0.2
  9
$TRACEWID
 40
0.05
  9
$TEXTSTYLE
  7
Standard
  9
$CLAYER
  8
0
  9
$CELTYPE
  6
ByLayer
  9
$CECOLOR
 62
   256
  9
$CELTSCALE
 40
1.0
  9
$DISPSILH
 70
     0
  9
$DIMSCALE
 40
1.0
  9
$DIMASZ
 40
0.18
  9
$DIMEXO
 40
0.0625
  9
$DIMDLI
 40
0.38
  9
$DIMRND
 40
0.0
  9
$DIMDLE
 40
0.0
  9
$DIMEXE
 40
0.18
  9
$DIMTP
 40
0.0
  9
$DIMTM
 40
0.0
  9
$DIMTXT
 40
0.18
  9
$DIMCEN
 40
0.09
  9
$DIMTSZ
 40
0.0
  9
$DIMTOL
 70
     0
  9
$DIMLIM
 70
     0
  9
$DIMTIH
 70
     1
  9
$DIMTOH
 70
     1
  9
$DIMSE1
 70
     0
  9
$DIMSE2
 70
     0
  9
$DIMTAD
 70
     0
  9
$DIMZIN
 70
     0
  9
$DIMBLK
  1

  9
$DIMASO
 70
     1
  9
$DIMSHO
 70
     1
  9
$DIMPOST
  1

  9
$DIMAPOST
  1

  9
$DIMALT
 70
     0
  9
$DIMALTD
 70
     2
  9
$DIMALTF
 40
25.4
  9
$DIMLFAC
 40
1.0
  9
$DIMTOFL
 70
     0
  9
$DIMTVP
 40
0.0
  9
$DIMTIX
 70
     0
  9
$DIMSOXD
 70
     0
  9
$DIMSAH
 70
     0
  9
$DIMBLK1
  1

  9
$DIMBLK2
  1

  9
$DIMSTYLE
  2
Standard
  9
$DIMCLRD
 70
     0
  9
$DIMCLRE
 70
     0
  9
$DIMCLRT
 70
     0
  9
$DIMTFAC
 40
1.0
  9
$DIMGAP
 40
0.09
  9
$DIMJUST
 70
     0
  9
$DIMSD1
 70
     0
  9
$DIMSD2
 70
     0
  9
$DIMTOLJ
 70
     1
  9
$DIMTZIN
 70
     0
  9
$DIMALTZ
 70
     0
  9
$DIMALTTZ
 70
     0
  9
$DIMUPT
 70
     0
  9
$DIMDEC
 70
     4
  9
$DIMTDEC
 70
     4
  9
$DIMALTU
 70
     2
  9
$DIMALTTD
 70
     2
  9
$DIMTXSTY
  7
Standard
  9
$DIMAUNIT
 70
     0
  9
$DIMADEC
 70
     0
  9
$DIMALTRND
 40
0.0
  9
$DIMAZIN
 70
     0
  9
$DIMDSEP
 70
    46
  9
$DIMATFIT
 70
     3
  9
$DIMFRAC
 70
     0
  9
$DIMLDRBLK
  1

  9
$DIMLUNIT
 70
     2
  9
$DIMLWD
 70
    -2
  9
$DIMLWE
 70
    -2
  9
$DIMTMOVE
 70
     0
  9
$LUNITS
 70
     2
  9
$LUPREC
 70
     4
  9
$SKETCHINC
 40
0.1
  9
$FILLETRAD
 40
0.5
  9
$AUNITS
 70
     0
  9
$AUPREC
 70
     0
  9
$MENU
  1
.
  9
$ELEVATION
 40
0.0
  9
$PELEVATION
 40
0.0
  9
$THICKNESS
 40
0.0
  9
$LIMCHECK
 70
     0
  9
$CHAMFERA
 40
0.5
  9
$CHAMFERB
 40
0.5
  9
$CHAMFERC
 40
1.0
  9
$CHAMFERD
 40
0.0
  9
$SKPOLY
 70
     0
  9
$TDCREATE
 40
2456997.611469005
  9
$TDUCREATE
 40
2456997.569802338
  9
$TDUPDATE
 40
2456997.611469375
  9
$TDUUPDATE
 40
2456997.569802708
  9
$TDINDWG
 40
0.0000000116
  9
$TDUSRTIMER
 40
0.0000000116
  9
$USRTIMER
 70
     1
  9
$ANGBASE
 50
0.0
  9
$ANGDIR
 70
     0
  9
$PDMODE
 70
     0
  9
$PDSIZE
 40
0.0
  9
$PLINEWID
 40
0.0
  9
$SPLFRAME
 70
     0
  9
$SPLINETYPE
 70
     6
  9
$SPLINESEGS
 70
     8
  9
$HANDSEED
  5
613
  9
$SURFTAB1
 70
     6
  9
$SURFTAB2
 70
     6
  9
$SURFTYPE
 70
     6
  9
$SURFU
 70
     6
  9
$SURFV
 70
     6
  9
$UCSBASE
  2

  9
$UCSNAME
  2

  9
$UCSORG
 10
0.0
 20
0.0
 30
0.0
  9
$UCSXDIR
 10
1.0
 20
0.0
 30
0.0
  9
$UCSYDIR
 10
0.0
 20
1.0
 30
0.0
  9
$UCSORTHOREF
  2

  9
$UCSORTHOVIEW
 70
     0
  9
$UCSORGTOP
 10
0.0
 20
0.0
 30
0.0
  9
$UCSORGBOTTOM
 10
0.0
 20
0.0
 30
0.0
  9
$UCSORGLEFT
 10
0.0
 20
0.0
 30
0.0
  9
$UCSORGRIGHT
 10
0.0
 20
0.0
 30
0.0
  9
$UCSORGFRONT
 10
0.0
 20
0.0
 30
0.0
  9
$UCSORGBACK
 10
0.0
 20
0.0
 30
0.0
  9
$PUCSBASE
  2

  9
$PUCSNAME
  2

  9
$PUCSORG
 10
0.0
 20
0.0
 30
0.0
  9
$PUCSXDIR
 10
1.0
 20
0.0
 30
0.0
  9
$PUCSYDIR
 10
0.0
 20
1.0
 30
0.0
  9
$PUCSORTHOREF
  2

  9
$PUCSORTHOVIEW
 70
     0
  9
$PUCSORGTOP
 10
0.0
 20
0.0
 30
0.0
  9
$PUCSORGBOTTOM
 10
0.0
 20
0.0
 30
0.0
  9
$PUCSORGLEFT
 10
0.0
 20
0.0
 30
0.0
  9
$PUCSORGRIGHT
 10
0.0
 20
0.0
 30
0.0
  9
$PUCSORGFRONT
 10
0.0
 20
0.0
 30
0.0
  9
$PUCSORGBACK
 10
0.0
 20
0.0
 30
0.0
  9
$USERI1
 70
     0
  9
$USERI2
 70
     0
  9
$USERI3
 70
     0
  9
$USERI4
 70
     0
  9
$USERI5
 70
     0
  9
$USERR1
 40
18.1
  9
$USERR2
 40
0.0
  9
$USERR3
 40
0.0
  9
$USERR4
 40
0.0
  9
$USERR5
 40
0.0
  9
$WORLDVIEW
 70
     1
  9
$SHADEDGE
 70
     3
  9
$SHADEDIF
 70
    70
  9
$TILEMODE
 70
     1
  9
$MAXACTVP
 70
    64
  9
$PINSBASE
 10
0.0
 20
0.0
 30
0.0
  9
$PLIMCHECK
 70
     0
  9
$PEXTMIN
 10
1.00000000000000E+20
 20
1.00000000000000E+20
 30
1.00000000000000E+20
  9
$PEXTMAX
 10
-1.00000000000000E+20
 20
-1.00000000000000E+20
 30
-1.00000000000000E+20
  9
$PLIMMIN
 10
0.0
 20
0.0
  9
$PLIMMAX
 10
12.0
 20
9.0
  9
$UNITMODE
 70
     0
  9
$VISRETAIN
 70
     1
  9
$PLINEGEN
 70
     0
  9
$PSLTSCALE
 70
     1
  9
$TREEDEPTH
 70
  3020
  9
$CMLSTYLE
  2
Standard
  9
$CMLJUST
 70
     0
  9
$CMLSCALE
 40
1.0
  9
$PROXYGRAPHICS
 70
     1
  9
$MEASUREMENT
 70
     1
  9
$CELWEIGHT
370
    -1
  9
$ENDCAPS
280
     0
  9
$JOINSTYLE
280
     0
  9
$LWDISPLAY
290
     0
  9
$INSUNITS
 70
     4
  9
$HYPERLINKBASE
  1

  9
$STYLESHEET
  1

  9
$XEDIT
290
     1
  9
$CEPSNTYPE
380
     0
  9
$PSTYLEMODE
290
     1
  9
$FINGERPRINTGUID
  2
{BBE38D79-37AD-4652-8022-31631DE21D1A}
  9
$VERSIONGUID
  2
{FAEB1C32-E019-11D5-929B-00C0DF256EC4}
  9
$EXTNAMES
290
     1
  9
$PSVPSCALE
 40
0.0
  9
$OLESTARTUP
290
     0
  0
ENDSEC
  0
SECTION
  2
CLASSES
  0
CLASS
  1
ACDBDICTIONARYWDFLT
  2
AcDbDictionaryWithDefault
  3
ObjectDBX Classes
 90
        0
280
     0
281
     0
  0
CLASS
  1
VISUALSTYLE
  2
AcDbVisualStyle
  3
ObjectDBX Classes
 90
     4095
280
     0
281
     0
  0
CLASS
  1
MATERIAL
  2
AcDbMaterial
  3
ObjectDBX Classes
 90
     1153
280
     0
281
     0
  0
CLASS
  1
DICTIONARYVAR
  2
AcDbDictionaryVar
  3
ObjectDBX Classes
 90
        0
280
     0
281
     0
  0
CLASS
  1
ACDBPLACEHOLDER
  2
AcDbPlaceHolder
  3
ObjectDBX Classes
 90
        0
280
     0
281
     0
  0
CLASS
  1
LAYOUT
  2
AcDbLayout
  3
ObjectDBX Classes
 90
        0
280
     0
281
     0
  0
ENDSEC
  0
SECTION
  2
TABLES
  0
TABLE
  2
VPORT
  5
8
330
0
100
AcDbSymbolTable
 70
     1
  0
VPORT
  5
29
330
8
100
AcDbSymbolTableRecord
100
AcDbViewportTableRecord
  2
*Active
 70
     0
 10
0.0
 20
0.0
 11
1.0
 21
1.0
 12
148.5000000000001
 22
105.0000000000001
 13
0.0
 23
0.0
 14
0.5
 24
0.5
 15
0.5
 25
0.5
 16
0.0
 26
0.0
 36
1.0
 17
0.0
 27
0.0
 37
0.0
 40
231.0000000000001
 41
1.60267857142857
 42
50.0
 43
0.0
 44
0.0
 50
0.0
 51
0.0
 71
     0
 72
   100
 73
     1
 74
     3
 75
     0
 76
     0
 77
     0
 78
     0
281
     0
 65
     1
110
0.0
120
0.0
130
0.0
111
1.0
121
0.0
131
0.0
112
0.0
122
1.0
132
0.0
 79
     0
146
0.0
  0
ENDTAB
  0
TABLE
  2
LTYPE
  5
5
330
0
100
AcDbSymbolTable
 70
    10
  0
LTYPE
  5
14
330
5
100
AcDbSymbolTableRecord
100
AcDbLinetypeTableRecord
  2
ByBlock
 70
     0
  3

 72
    65
 73
     0
 40
0.0
  0
LTYPE
  5
15
330
5
100
AcDbSymbolTableRecord
100
AcDbLinetypeTableRecord
  2
ByLayer
 70
     0
  3

 72
    65
 73
     0
 40
0.0
  0
LTYPE
  5
16
330
5
100
AcDbSymbolTableRecord
100
AcDbLinetypeTableRecord
  2
Continuous
 70
     0
  3
Solid line
 72
    65
 73
     0
 40
0.0
  0
LTYPE
  5
3F
330
5
100
AcDbSymbolTableRecord
100
AcDbLinetypeTableRecord
  2
DASHED
 70
     0
  3
Dashed
 72
    65
 73
     2
 40
15.0
 49
7.0
 74
     0
 49
-8.0
 74
     0
  0
LTYPE
  5
40
330
5
100
AcDbSymbolTableRecord
100
AcDbLinetypeTableRecord
  2
DOTTED
 70
     0
  3
Dotted
 72
    65
 73
     2
 40
1.0
 49
0.0
 74
     0
 49
-1.0
 74
     0
  0
LTYPE
  5
41
330
5
100
AcDbSymbolTableRecord
100
AcDbLinetypeTableRecord
  2
DOT_CENTER
 70
     0
  3
Dot_Center
 72
    65
 73
     4
 40
14.0
 49
12.0
 74
     0
 49
-1.0
 74
     0
 49
0.0
 74
     0
 49
-1.0
 74
     0
  0
LTYPE
  5
42
330
5
100
AcDbSymbolTableRecord
100
AcDbLinetypeTableRecord
  2
LONG_DASHED
 70
     0
  3
Long_Dashed
 72
    65
 73
     2
 40
15.0
 49
10.0
 74
     0
 49
-5.0
 74
     0
  0
LTYPE
  5
43
330
5
100
AcDbSymbolTableRecord
100
AcDbLinetypeTableRecord
  2
DASH_CENTER
 70
     0
  3
Dash_Center
 72
    65
 73
     4
 40
14.0
 49
11.0
 74
     0
 49
-1.0
 74
     0
 49
1.0
 74
     0
 49
-1.0
 74
     0
  0
LTYPE
  5
44
330
5
100
AcDbSymbolTableRecord
100
AcDbLinetypeTableRecord
  2
PHANTOM
 70
     0
  3
Phantom
 72
    65
 73
     6
 40
13.0
 49
10.0
 74
     0
 49
-1.0
 74
     0
 49
0.0
 74
     0
 49
-1.0
 74
     0
 49
0.0
 74
     0
 49
-1.0
 74
     0
  0
LTYPE
  5
45
330
5
100
AcDbSymbolTableRecord
100
AcDbLinetypeTableRecord
  2
CENTER_DASH_DASH
 70
     0
  3
Center_Dash_Dash
 72
    65
 73
     6
 40
14.0
 49
9.0
 74
     0
 49
-1.0
 74
     0
 49
1.0
 74
     0
 49
-1.0
 74
     0
 49
1.0
 74
     0
 49
-1.0
 74
     0
  0
LTYPE
  5
46
330
5
100
AcDbSymbolTableRecord
100
AcDbLinetypeTableRecord
  2
CHAIN
 70
     0
  3
CHAIN
 72
    65
 73
     4
 40
4.0
 49
1.0
 74
     0
 49
-1.0
 74
     0
 49
1.0
 74
     0
 49
-1.0
 74
     0
  0
LTYPE
  5
47
330
5
100
AcDbSymbolTableRecord
100
AcDbLinetypeTableRecord
  2
DASHED_SPACE
 70
     0
  3
DASHED_SPACE
 72
    65
 73
     2
 40
2.0
 49
1.0
 74
     0
 49
-1.0
 74
     0
  0
ENDTAB
  0
TABLE
  2
LAYER
  5
2
330
0
100
AcDbSymbolTable
 70
     8
  0
LAYER
  5
10
330
2
100
AcDbSymbolTableRecord
100
AcDbLayerTableRecord
  2
0
 70
     0
 62
     7
  6
Continuous
370
    -3
390
F
  0
LAYER
  5
48
330
2
100
AcDbSymbolTableRecord
100
AcDbLayerTableRecord
  2
1
 70
     0
 62
     7
  6
Continuous
370
    -3
390
F
  0
LAYER
  5
49
330
2
100
AcDbSymbolTableRecord
100
AcDbLayerTableRecord
  2
Bemaßungen_TC_020513_DIN_
 70
     0
 62
     7
  6
Continuous
370
    -3
390
F
  0
LAYER
  5
4A
330
2
100
AcDbSymbolTableRecord
100
AcDbLayerTableRecord
  2
Mittellinie_TC_020513_DIN_
 70
     0
 62
     7
  6
Continuous
370
    -3
390
F
  0
LAYER
  5
4B
330
2
100
AcDbSymbolTableRecord
100
AcDbLayerTableRecord
  2
Mittelpunktmarkierung_TC_020513_DIN_
 70
     0
 62
     7
  6
Continuous
370
    -3
390
F
  0
LAYER
  5
4C
330
2
100
AcDbSymbolTableRecord
100
AcDbLayerTableRecord
  2
Sichtbare_Kanten_TC_020513_DIN_
 70
     0
 62
     7
  6
Continuous
370
    -3
390
F
  0
LAYER
  5
4D
330
2
100
AcDbSymbolTableRecord
100
AcDbLayerTableRecord
  2
Stich_1-Linien_TC_020513_DIN_
 70
     0
 62
     7
  6
Continuous
370
    -3
390
F
  0
LAYER
  5
4E
330
2
100
AcDbSymbolTableRecord
100
AcDbLayerTableRecord
  2
Symbole_TC_020513_DIN_
 70
     0
 62
     7
  6
Continuous
370
    -3
390
F
  0
ENDTAB
  0
TABLE
  2
STYLE
  5
3
330
0
100
AcDbSymbolTable
 70
     4
  0
STYLE
  5
11
330
3
100
AcDbSymbolTableRecord
100
AcDbTextStyleTableRecord
  2
Standard
 70
     0
 40
0.0
 41
1.0
 50
0.0
 71
     0
 42
0.2
  3
txt
  4

  0
STYLE
  5
A3
330
3
100
AcDbSymbolTableRecord
100
AcDbTextStyleTableRecord
  2
CONVERTER_11
 70
     0
 40
0.0
 41
1.2
 50
0.0
 71
     0
 42
0.2
  3
ARIAL.TTF
  4

  0
STYLE
  5
A8
330
3
100
AcDbSymbolTableRecord
100
AcDbTextStyleTableRecord
  2
CONVERTER_12
 70
     0
 40
0.0
 41
1.38
 50
0.0
 71
     0
 42
0.2
  3
ARIAL.TTF
  4

  0
STYLE
  5
57F
330
3
100
AcDbSymbolTableRecord
100
AcDbTextStyleTableRecord
  2
CONVERTER_13
 70
     0
 40
0.0
 41
0.75
 50
0.0
 71
     0
 42
0.2
  3
txt.shx
  4

  0
ENDTAB
  0
TABLE
  2
VIEW
  5
6
330
0
100
AcDbSymbolTable
 70
     0
  0
ENDTAB
  0
TABLE
  2
UCS
  5
7
330
0
100
AcDbSymbolTable
 70
     0
  0
ENDTAB
  0
TABLE
  2
APPID
  5
9
330
0
100
AcDbSymbolTable
 70
     1
  0
APPID
  5
12
330
9
100
AcDbSymbolTableRecord
100
AcDbRegAppTableRecord
  2
ACAD
 70
     0
  0
ENDTAB
  0
TABLE
  2
DIMSTYLE
  5
A
330
0
100
AcDbSymbolTable
 70
    11
100
AcDbDimStyleTable
  0
DIMSTYLE
105
27
330
A
100
AcDbSymbolTableRecord
100
AcDbDimStyleTableRecord
  2
Standard
 70
     0
178
     0
340
11
  0
DIMSTYLE
105
583
102
{ACAD_REACTORS
330
584
102
}
330
A
100
AcDbSymbolTableRecord
100
AcDbDimStyleTableRecord
  2
ME10_DIM_10
 70
     0
 41
2.5
 42
1.0
 44
2.0
 73
     0
 74
     0
 77
     1
 78
    12
140
3.5
147
0.8
172
     1
173
     1
174
     1
175
     1
176
     7
177
     7
271
     2
178
     7
271
     2
340
57F
  0
DIMSTYLE
105
58E
102
{ACAD_REACTORS
330
58F
102
}
330
A
100
AcDbSymbolTableRecord
100
AcDbDimStyleTableRecord
  2
ME10_DIM_11
 70
     0
 41
2.5
 42
1.0
 44
2.0
 73
     0
 74
     0
 77
     1
 78
    12
140
3.5
147
0.8
172
     1
173
     1
174
     1
175
     1
176
     7
177
     7
271
     2
178
     7
271
     2
340
57F
  0
DIMSTYLE
105
599
102
{ACAD_REACTORS
330
59A
102
}
330
A
100
AcDbSymbolTableRecord
100
AcDbDimStyleTableRecord
  2
ME10_DIM_12
 70
     0
 41
2.5
 42
1.0
 44
2.0
 73
     0
 74
     0
 77
     1
 78
    12
140
3.5
147
0.8
172
     1
173
     1
174
     1
175
     1
176
     7
177
     7
271
     2
178
     7
271
     2
340
57F
  0
DIMSTYLE
105
5A4
102
{ACAD_REACTORS
330
5A5
102
}
330
A
100
AcDbSymbolTableRecord
100
AcDbDimStyleTableRecord
  2
ME10_DIM_13
 70
     0
 41
2.5
 42
1.0
 44
2.0
 73
     0
 74
     0
 77
     1
 78
    12
140
3.5
147
0.8
172
     1
173
     1
174
     1
175
     1
176
     7
177
     7
271
     2
178
     7
271
     2
340
57F
  0
DIMSTYLE
105
5AF
102
{ACAD_REACTORS
330
5B0
102
}
330
A
100
AcDbSymbolTableRecord
100
AcDbDimStyleTableRecord
  2
ME10_DIM_14
 70
     0
 41
2.5
 42
1.0
 44
2.0
 73
     0
 74
     0
 77
     1
 78
    12
140
3.5
147
0.8
172
     1
173
     1
174
     1
175
     1
176
     7
177
     7
271
     0
178
     7
271
     0
340
57F
  0
DIMSTYLE
105
5BA
102
{ACAD_REACTORS
330
5BB
102
}
330
A
100
AcDbSymbolTableRecord
100
AcDbDimStyleTableRecord
  2
ME10_DIM_15
 70
     0
 41
2.5
 42
1.0
 44
2.0
 73
     0
 74
     0
 77
     1
 78
    12
140
3.5
147
0.8
172
     1
173
     1
174
     1
175
     1
176
     7
177
     7
271
     2
178
     7
271
     2
340
57F
  0
DIMSTYLE
105
5C5
102
{ACAD_REACTORS
330
5C6
102
}
330
A
100
AcDbSymbolTableRecord
100
AcDbDimStyleTableRecord
  2
ME10_DIM_16
 70
     0
 41
2.5
 42
1.0
 44
2.0
 73
     0
 74
     0
 77
     1
 78
    12
140
3.5
147
0.8
172
     1
173
     1
174
     1
175
     1
176
     7
177
     7
271
     2
178
     7
271
     2
340
57F
  0
DIMSTYLE
105
5D0
102
{ACAD_REACTORS
330
5D1
102
}
330
A
100
AcDbSymbolTableRecord
100
AcDbDimStyleTableRecord
  2
ME10_DIM_17
 70
     0
 41
2.5
 42
1.0
 44
2.0
 73
     0
 74
     0
 77
     1
 78
    12
140
3.5
147
0.8
172
     1
173
     1
174
     1
175
     1
176
     7
177
     7
271
     2
178
     7
271
     2
340
57F
  0
DIMSTYLE
105
5DB
102
{ACAD_REACTORS
330
5DC
102
}
330
A
100
AcDbSymbolTableRecord
100
AcDbDimStyleTableRecord
  2
ME10_DIM_18
 70
     0
 41
2.5
 42
1.0
 44
2.0
 73
     0
 74
     0
 77
     1
 78
    12
140
3.5
147
0.8
172
     1
173
     1
174
     1
175
     1
176
     7
177
     7
271
     2
178
     7
271
     2
340
57F
  0
DIMSTYLE
105
5E6
102
{ACAD_REACTORS
330
5E7
102
}
330
A
100
AcDbSymbolTableRecord
100
AcDbDimStyleTableRecord
  2
ME10_DIM_19
 70
     0
 41
2.5
 42
1.0
 44
2.0
 73
     0
 74
     0
 77
     1
 78
    12
140
3.5
147
0.8
172
     1
173
     1
174
     1
175
     1
176
     7
177
     7
271
     2
178
     7
271
     2
340
57F
  0
ENDTAB
  0
TABLE
  2
BLOCK_RECORD
  5
1
330
0
100
AcDbSymbolTable
 70
    13
  0
BLOCK_RECORD
  5
1F
330
1
100
AcDbSymbolTableRecord
100
AcDbBlockTableRecord
  2
*Model_Space
340
22
  0
BLOCK_RECORD
  5
1B
330
1
100
AcDbSymbolTableRecord
100
AcDbBlockTableRecord
  2
*Paper_Space
340
1E
  0
BLOCK_RECORD
  5
23
330
1
100
AcDbSymbolTableRecord
100
AcDbBlockTableRecord
  2
*Paper_Space0
340
26
  0
BLOCK_RECORD
  5
4F
330
1
100
AcDbSymbolTableRecord
100
AcDbBlockTableRecord
  2
_formato_A4
340
0
102
{BLKREFS
331
53
102
}
  0
BLOCK_RECORD
  5
52
330
1
100
AcDbSymbolTableRecord
100
AcDbBlockTableRecord
  2
A4_oriz
340
0
102
{BLKREFS
331
56
102
}
  0
BLOCK_RECORD
  5
579
330
1
100
AcDbSymbolTableRecord
100
AcDbBlockTableRecord
  2
*D3
340
0
  0
BLOCK_RECORD
  5
585
330
1
100
AcDbSymbolTableRecord
100
AcDbBlockTableRecord
  2
*D4
340
0
  0
BLOCK_RECORD
  5
590
330
1
100
AcDbSymbolTableRecord
100
AcDbBlockTableRecord
  2
*D5
340
0
  0
BLOCK_RECORD
  5
59B
330
1
100
AcDbSymbolTableRecord
100
AcDbBlockTableRecord
  2
*D6
340
0
  0
BLOCK_RECORD
  5
5A6
330
1
100
AcDbSymbolTableRecord
100
AcDbBlockTableRecord
  2
*D7
340
0
  0
BLOCK_RECORD
  5
5B1
330
1
100
AcDbSymbolTableRecord
100
AcDbBlockTableRecord
  2
*D8
340
0
  0
BLOCK_RECORD
  5
5BC
330
1
100
AcDbSymbolTableRecord
100
AcDbBlockTableRecord
  2
*D9
340
0
  0
BLOCK_RECORD
  5
5C7
330
1
100
AcDbSymbolTableRecord
100
AcDbBlockTableRecord
  2
*D10
340
0
  0
BLOCK_RECORD
  5
5D2
330
1
100
AcDbSymbolTableRecord
100
AcDbBlockTableRecord
  2
*D11
340
0
  0
BLOCK_RECORD
  5
5DD
330
1
100
AcDbSymbolTableRecord
100
AcDbBlockTableRecord
  2
*D12
340
0
  0
ENDTAB
  0
ENDSEC
  0
SECTION
  2
BLOCKS
  0
BLOCK
  5
20
330
1F
100
AcDbEntity
  8
0
100
AcDbBlockBegin
  2
*Model_Space
 70
     0
 10
0.0
 20
0.0
 30
0.0
  3
*Model_Space
  1

  0
ENDBLK
  5
21
330
1F
100
AcDbEntity
  8
0
100
AcDbBlockEnd
  0
BLOCK
  5
1C
330
1B
100
AcDbEntity
 67
     1
  8
0
100
AcDbBlockBegin
  2
*Paper_Space
 70
     0
 10
0.0
 20
0.0
 30
0.0
  3
*Paper_Space
  1

  0
ENDBLK
  5
1D
330
1B
100
AcDbEntity
 67
     1
  8
0
100
AcDbBlockEnd
  0
BLOCK
  5
24
330
23
100
AcDbEntity
  8
0
100
AcDbBlockBegin
  2
*Paper_Space0
 70
     0
 10
0.0
 20
0.0
 30
0.0
  3
*Paper_Space0
  1

  0
ENDBLK
  5
25
330
23
100
AcDbEntity
  8
0
100
AcDbBlockEnd
  0
BLOCK
  5
50
330
4F
100
AcDbEntity
  8
0
100
AcDbBlockBegin
  2
_formato_A4
 70
     0
 10
297.0000000000002
 20
0.0
 30
0.0
  3
_formato_A4
  1

  0
LINE
  5
57
330
4F
100
AcDbEntity
  8
1
  6
Continuous
 62
     7
100
AcDbLine
 10
108.0000000000001
 20
9.99999999999986
 30
0.0
 11
138.0000000000001
 21
9.99999999999986
 31
0.0
  0
LINE
  5
58
330
4F
100
AcDbEntity
  8
1
  6
Continuous
 62
     7
100
AcDbLine
 10
108.0000000000001
 20
14.99999999999989
 30
0.0
 11
138.0000000000001
 21
14.99999999999989
 31
0.0
  0
LINE
  5
59
330
4F
100
AcDbEntity
  8
1
  6
Continuous
 62
     7
100
AcDbLine
 10
248.0000000000002
 20
20.0
 30
0.0
 11
248.0000000000002
 21
5.0
 31
0.0
  0
LINE
  5
5A
330
4F
100
AcDbEntity
  8
1
  6
Continuous
 62
     7
100
AcDbLine
 10
265.3526013774854
 20
20.0
 30
0.0
 11
265.3526013774854
 21
5.0
 31
0.0
  0
LINE
  5
5B
330
4F
100
AcDbEntity
  8
1
  6
Continuous
 62
     7
100
AcDbLine
 10
138.0000000000001
 20
20.0
 30
0.0
 11
138.0000000000001
 21
5.0
 31
0.0
  0
LINE
  5
5C
330
4F
100
AcDbEntity
  8
1
  6
Continuous
 62
     7
100
AcDbLine
 10
148.4999999999997
 20
210.0000000000001
 30
0.0
 11
148.4999999999997
 21
195.0000000000001
 31
0.0
  0
LINE
  5
5D
330
4F
100
AcDbEntity
  8
1
  6
Continuous
 62
     7
100
AcDbLine
 10
0.0
 20
0.0
 30
0.0
 11
297.0000000000002
 21
0.0
 31
0.0
  0
LINE
  5
5E
330
4F
100
AcDbEntity
  8
1
  6
Continuous
 62
     7
100
AcDbLine
 10
0.0
 20
210.0000000000001
 30
0.0
 11
0.0
 21
0.0
 31
0.0
  0
LINE
  5
5F
330
4F
100
AcDbEntity
  8
1
  6
Continuous
 62
     7
100
AcDbLine
 10
297.0000000000002
 20
210.0000000000001
 30
0.0
 11
0.0
 21
210.0000000000001
 31
0.0
  0
LINE
  5
60
330
4F
100
AcDbEntity
  8
1
  6
Continuous
 62
     7
100
AcDbLine
 10
297.0000000000002
 20
0.0
 30
0.0
 11
297.0000000000002
 21
210.0000000000001
 31
0.0
  0
LINE
  5
61
330
4F
100
AcDbEntity
  8
1
  6
Continuous
 62
     7
100
AcDbLine
 10
4.99999999999989
 20
5.0
 30
0.0
 11
292.0000000000002
 21
5.0
 31
0.0
  0
LINE
  5
62
330
4F
100
AcDbEntity
  8
1
  6
Continuous
 62
     7
100
AcDbLine
 10
292.0000000000002
 20
5.0
 30
0.0
 11
292.0000000000002
 21
189.0
 31
0.0
  0
LINE
  5
63
330
4F
100
AcDbEntity
  8
1
  6
Continuous
 62
     7
100
AcDbLine
 10
292.0000000000002
 20
189.0
 30
0.0
 11
4.99999999999989
 21
189.0
 31
0.0
  0
LINE
  5
64
102
{ACAD_REACTORS
330
B1
102
}
330
4F
100
AcDbEntity
  8
1
  6
Continuous
 62
     7
100
AcDbLine
 10
281.0096340220761
 20
10.07749983983263
 30
0.0
 11
281.0096340220761
 21
14.92250016016737
 31
0.0
  0
LINE
  5
65
102
{ACAD_REACTORS
330
AE
102
}
330
4F
100
AcDbEntity
  8
1
  6
Continuous
 62
     7
100
AcDbLine
 10
279.6763006887426
 20
12.5
 30
0.0
 11
279.6763006887426
 21
14.23205080756884
 31
0.0
  0
LINE
  5
66
102
{ACAD_REACTORS
330
AE
102
}
330
4F
100
AcDbEntity
  8
1
  6
Continuous
 62
     7
100
AcDbLine
 10
279.6763006887426
 20
14.23205080756884
 30
0.0
 11
278.8206382560401
 21
12.75
 31
0.0
  0
LINE
  5
67
102
{ACAD_REACTORS
330
AE
102
}
330
4F
100
AcDbEntity
  8
1
  6
Continuous
 62
     7
100
AcDbLine
 10
278.5319631214451
 20
12.75
 30
0.0
 11
277.6763006887426
 21
14.23205080756884
 31
0.0
  0
LINE
  5
68
102
{ACAD_REACTORS
330
AE
102
}
330
4F
100
AcDbEntity
  8
1
  6
Continuous
 62
     7
100
AcDbLine
 10
277.6763006887426
 20
14.23205080756884
 30
0.0
 11
277.6763006887426
 21
12.5
 31
0.0
  0
LINE
  5
69
330
4F
100
AcDbEntity
  8
1
  6
Continuous
 62
     7
100
AcDbLine
 10
270.2598654136012
 20
12.64436426434133
 30
0.0
 11
278.6763006887426
 21
17.5
 31
0.0
  0
LINE
  5
6A
330
4F
100
AcDbEntity
  8
1
  6
Continuous
 62
     7
100
AcDbLine
 10
278.6763006887426
 20
17.5
 30
0.0
 11
287.0927359638842
 21
12.64436426434133
 31
0.0
  0
LINE
  5
6B
330
4F
100
AcDbEntity
  8
1
  6
Continuous
 62
     7
100
AcDbLine
 10
287.0927359638842
 20
12.35563573565855
 30
0.0
 11
278.6763006887426
 21
7.5
 31
0.0
  0
LINE
  5
6C
330
4F
100
AcDbEntity
  8
1
  6
Continuous
 62
     7
100
AcDbLine
 10
278.6763006887426
 20
7.5
 30
0.0
 11
270.2598654136012
 21
12.35563573565855
 31
0.0
  0
LINE
  5
6D
102
{ACAD_REACTORS
330
AE
102
}
330
4F
100
AcDbEntity
  8
1
  6
Continuous
 62
     7
100
AcDbLine
 10
277.009634022076
 20
12.5
 30
0.0
 11
277.009634022076
 21
15.73121731203457
 31
0.0
  0
LINE
  5
6E
102
{ACAD_REACTORS
330
AE
102
}
330
4F
100
AcDbEntity
  8
1
  6
Continuous
 62
     7
100
AcDbLine
 10
277.5040677056995
 20
15.86370041827229
 30
0.0
 11
278.6763006887426
 21
13.83333333333326
 31
0.0
  0
LINE
  5
6F
102
{ACAD_REACTORS
330
AE
102
}
330
4F
100
AcDbEntity
  8
1
  6
Continuous
 62
     7
100
AcDbLine
 10
277.009634022076
 20
12.5
 30
0.0
 11
277.009634022076
 21
10.84758507263291
 31
0.0
  0
LINE
  5
70
102
{ACAD_REACTORS
330
AE
102
}
330
4F
100
AcDbEntity
  8
1
  6
Continuous
 62
     7
100
AcDbLine
 10
277.6763006887426
 20
10.84758507263291
 30
0.0
 11
277.6763006887426
 21
12.5
 31
0.0
  0
LINE
  5
71
102
{ACAD_REACTORS
330
AE
102
}
330
4F
100
AcDbEntity
  8
1
  6
Continuous
 62
     7
100
AcDbLine
 10
279.6763006887426
 20
12.5
 30
0.0
 11
279.6763006887426
 21
9.30826907060179
 31
0.0
  0
LINE
  5
72
102
{ACAD_REACTORS
330
AE
102
}
330
4F
100
AcDbEntity
  8
1
  6
Continuous
 62
     7
100
AcDbLine
 10
280.3429673554094
 20
9.30826907060179
 30
0.0
 11
280.3429673554094
 21
15.73121731203457
 31
0.0
  0
LINE
  5
73
102
{ACAD_REACTORS
330
AE
102
}
330
4F
100
AcDbEntity
  8
1
  6
Continuous
 62
     7
100
AcDbLine
 10
279.848533671786
 20
15.86370041827229
 30
0.0
 11
278.6763006887426
 21
13.83333333333326
 31
0.0
  0
LINE
  5
74
102
{ACAD_REACTORS
330
AF
102
}
330
4F
100
AcDbEntity
  8
1
  6
Continuous
 62
     7
100
AcDbLine
 10
275.6763006887426
 20
10.27002114803258
 30
0.0
 11
275.6763006887426
 21
14.92250016016737
 31
0.0
  0
LINE
  5
75
102
{ACAD_REACTORS
330
AF
102
}
330
4F
100
AcDbEntity
  8
1
  6
Continuous
 62
     7
100
AcDbLine
 10
276.3429673554094
 20
14.92250016016737
 30
0.0
 11
276.3429673554094
 21
10.2700211480327
 31
0.0
  0
LINE
  5
76
102
{ACAD_REACTORS
330
AF
102
}
330
4F
100
AcDbEntity
  8
1
  6
Continuous
 62
     7
100
AcDbLine
 10
276.3429673554094
 20
10.2700211480327
 30
0.0
 11
278.5095415065726
 21
9.0200745223616
 31
0.0
  0
LINE
  5
77
102
{ACAD_REACTORS
330
AF
102
}
330
4F
100
AcDbEntity
  8
1
  6
Continuous
 62
     7
100
AcDbLine
 10
278.1763932042463
 20
8.4426174649958
 30
0.0
 11
276.0098190530832
 21
9.6925640906669
 31
0.0
  0
LINE
  5
78
102
{ACAD_REACTORS
330
B0
102
}
330
4F
100
AcDbEntity
  8
1
  6
Continuous
 62
     7
100
AcDbLine
 10
275.009634022076
 20
14.15326939093666
 30
0.0
 11
275.009634022076
 21
11.0392519172633
 31
0.0
  0
LINE
  5
79
102
{ACAD_REACTORS
330
B0
102
}
330
4F
100
AcDbEntity
  8
1
  6
Continuous
 62
     7
100
AcDbLine
 10
275.009634022076
 20
11.0392519172633
 30
0.0
 11
275.009634022076
 21
10.84673060906323
 31
0.0
  0
LINE
  5
7A
102
{ACAD_REACTORS
330
B0
102
}
330
4F
100
AcDbEntity
  8
1
  6
Continuous
 62
     7
100
AcDbLine
 10
274.3429673554094
 20
10.84673060906323
 30
0.0
 11
274.3429673554094
 21
14.15326939093666
 31
0.0
  0
LINE
  5
7B
102
{ACAD_REACTORS
330
B1
102
}
330
4F
100
AcDbEntity
  8
1
  6
Continuous
 62
     7
100
AcDbLine
 10
281.5095415065726
 20
15.21122868885027
 30
0.0
 11
282.842874839906
 21
14.44199791961944
 31
0.0
  0
LINE
  5
7C
102
{ACAD_REACTORS
330
B1
102
}
330
4F
100
AcDbEntity
  8
1
  6
Continuous
 62
     7
100
AcDbLine
 10
282.5097265375795
 20
13.86454086225376
 30
0.0
 11
281.6763006887426
 21
14.34536346735195
 31
0.0
  0
LINE
  5
7D
102
{ACAD_REACTORS
330
B1
102
}
330
4F
100
AcDbEntity
  8
1
  6
Continuous
 62
     7
100
AcDbLine
 10
281.6763006887426
 20
14.34536346735195
 30
0.0
 11
281.6763006887426
 21
12.83333333333326
 31
0.0
  0
LINE
  5
7E
102
{ACAD_REACTORS
330
B1
102
}
330
4F
100
AcDbEntity
  8
1
  6
Continuous
 62
     7
100
AcDbLine
 10
281.6763006887426
 20
12.83333333333326
 30
0.0
 11
282.6763006887426
 21
12.83333333333326
 31
0.0
  0
LINE
  5
7F
102
{ACAD_REACTORS
330
B1
102
}
330
4F
100
AcDbEntity
  8
1
  6
Continuous
 62
     7
100
AcDbLine
 10
282.6763006887426
 20
12.16666666666663
 30
0.0
 11
281.6763006887426
 21
12.16666666666663
 31
0.0
  0
LINE
  5
80
102
{ACAD_REACTORS
330
B1
102
}
330
4F
100
AcDbEntity
  8
1
  6
Continuous
 62
     7
100
AcDbLine
 10
281.6763006887426
 20
12.16666666666663
 30
0.0
 11
281.6763006887426
 21
10.65463653264794
 31
0.0
  0
LINE
  5
81
102
{ACAD_REACTORS
330
B1
102
}
330
4F
100
AcDbEntity
  8
1
  6
Continuous
 62
     7
100
AcDbLine
 10
281.6763006887426
 20
10.65463653264794
 30
0.0
 11
282.5097265375795
 21
11.13545913774624
 31
0.0
  0
LINE
  5
82
102
{ACAD_REACTORS
330
B1
102
}
330
4F
100
AcDbEntity
  8
1
  6
Continuous
 62
     7
100
AcDbLine
 10
282.842874839906
 20
10.55800208038033
 30
0.0
 11
281.5095415065726
 21
9.78877131114973
 31
0.0
  0
LINE
  5
83
330
4F
100
AcDbEntity
  8
1
  6
Continuous
 62
     7
100
AcDbLine
 10
108.0000000000001
 20
24.99999999999999
 30
0.0
 11
292.0000000000002
 21
24.99999999999999
 31
0.0
  0
LINE
  5
84
330
4F
100
AcDbEntity
  8
1
  6
Continuous
 62
     7
100
AcDbLine
 10
115.0000000000001
 20
20.0
 30
0.0
 11
115.0000000000001
 21
24.99999999999999
 31
0.0
  0
LINE
  5
85
330
4F
100
AcDbEntity
  8
1
  6
Continuous
 62
     7
100
AcDbLine
 10
133.0000000000002
 20
20.0
 30
0.0
 11
133.0000000000002
 21
24.99999999999999
 31
0.0
  0
LINE
  5
86
330
4F
100
AcDbEntity
  8
1
  6
Continuous
 62
     7
100
AcDbLine
 10
108.0000000000001
 20
29.99999999999999
 30
0.0
 11
292.0000000000002
 21
29.99999999999999
 31
0.0
  0
LINE
  5
87
330
4F
100
AcDbEntity
  8
1
  6
Continuous
 62
     7
100
AcDbLine
 10
115.0000000000001
 20
24.99999999999999
 30
0.0
 11
115.0000000000001
 21
29.99999999999999
 31
0.0
  0
LINE
  5
88
330
4F
100
AcDbEntity
  8
1
  6
Continuous
 62
     7
100
AcDbLine
 10
133.0000000000002
 20
24.99999999999999
 30
0.0
 11
133.0000000000002
 21
29.99999999999999
 31
0.0
  0
LINE
  5
89
330
4F
100
AcDbEntity
  8
1
  6
Continuous
 62
     7
100
AcDbLine
 10
108.0000000000001
 20
34.99999999999999
 30
0.0
 11
292.0000000000002
 21
34.99999999999999
 31
0.0
  0
LINE
  5
8A
330
4F
100
AcDbEntity
  8
1
  6
Continuous
 62
     7
100
AcDbLine
 10
115.0000000000001
 20
29.99999999999999
 30
0.0
 11
115.0000000000001
 21
34.99999999999999
 31
0.0
  0
LINE
  5
8B
330
4F
100
AcDbEntity
  8
1
  6
Continuous
 62
     7
100
AcDbLine
 10
133.0000000000002
 20
29.99999999999999
 30
0.0
 11
133.0000000000002
 21
34.99999999999999
 31
0.0
  0
LINE
  5
8C
330
4F
100
AcDbEntity
  8
1
  6
Continuous
 62
     7
100
AcDbLine
 10
108.0000000000001
 20
39.99999999999999
 30
0.0
 11
292.0000000000002
 21
39.99999999999999
 31
0.0
  0
LINE
  5
8D
330
4F
100
AcDbEntity
  8
1
  6
Continuous
 62
     7
100
AcDbLine
 10
115.0000000000001
 20
34.99999999999999
 30
0.0
 11
115.0000000000001
 21
39.99999999999999
 31
0.0
  0
LINE
  5
8E
330
4F
100
AcDbEntity
  8
1
  6
Continuous
 62
     7
100
AcDbLine
 10
133.0000000000002
 20
34.99999999999999
 30
0.0
 11
133.0000000000002
 21
39.99999999999999
 31
0.0
  0
LINE
  5
8F
330
4F
100
AcDbEntity
  8
1
  6
Continuous
 62
     7
100
AcDbLine
 10
4.99999999999989
 20
189.0
 30
0.0
 11
4.99999999999989
 21
5.0
 31
0.0
  0
LINE
  5
90
330
4F
100
AcDbEntity
  8
1
  6
Continuous
 62
     7
100
AcDbLine
 10
108.0000000000001
 20
20.0
 30
0.0
 11
292.0000000000002
 21
20.0
 31
0.0
  0
LINE
  5
91
330
4F
100
AcDbEntity
  8
1
  6
Continuous
 62
     7
100
AcDbLine
 10
108.0000000000001
 20
4.99999999999988
 30
0.0
 11
108.0000000000001
 21
39.99999999999999
 31
0.0
  0
ARC
  5
92
102
{ACAD_REACTORS
330
AE
102
}
330
4F
100
AcDbEntity
  8
1
  6
Continuous
 62
     7
100
AcDbCircle
 10
277.2746002345513
 20
15.73121731203457
 30
0.0
 40
0.2649662124753838
100
AcDbArc
 50
30.00000000000692
 51
180.0
  0
ARC
  5
93
102
{ACAD_REACTORS
330
AE
102
}
330
4F
100
AcDbEntity
  8
1
  6
Continuous
 62
     7
100
AcDbCircle
 10
277.3429673554094
 20
10.84758507263291
 30
0.0
 40
0.3333333333334281
100
AcDbArc
 50
180.0
 51
0.0
  0
ARC
  5
94
102
{ACAD_REACTORS
330
AE
102
}
330
4F
100
AcDbEntity
  8
1
  6
Continuous
 62
     7
100
AcDbCircle
 10
280.0096340220761
 20
9.30826907060179
 30
0.0
 40
0.3333333333335418
100
AcDbArc
 50
180.0
 51
0.0
  0
ARC
  5
95
102
{ACAD_REACTORS
330
AE
102
}
330
4F
100
AcDbEntity
  8
1
  6
Continuous
 62
     7
100
AcDbCircle
 10
280.0780011429342
 20
15.73121731203457
 30
0.0
 40
0.2649662124752012
100
AcDbArc
 50
0.0
 51
149.9999999999931
  0
ARC
  5
96
102
{ACAD_REACTORS
330
AF
102
}
330
4F
100
AcDbEntity
  8
1
  6
Continuous
 62
     7
100
AcDbCircle
 10
276.009634022076
 20
14.92250016016737
 30
0.0
 40
0.3333333333334281
100
AcDbArc
 50
0.0
 51
180.0
  0
ARC
  5
97
102
{ACAD_REACTORS
330
AF
102
}
330
4F
100
AcDbEntity
  8
1
  6
Continuous
 62
     7
100
AcDbCircle
 10
278.3429673554094
 20
8.7313459936787
 30
0.0
 40
0.3333333333333141
100
AcDbArc
 50
240.0183606311663
 51
60.01836063115844
  0
ARC
  5
98
102
{ACAD_REACTORS
330
B0
102
}
330
4F
100
AcDbEntity
  8
1
  6
Continuous
 62
     7
100
AcDbCircle
 10
274.6763006887426
 20
14.15326939093666
 30
0.0
 40
0.3333333333334281
100
AcDbArc
 50
0.0
 51
180.0
  0
ARC
  5
99
102
{ACAD_REACTORS
330
B0
102
}
330
4F
100
AcDbEntity
  8
1
  6
Continuous
 62
     7
100
AcDbCircle
 10
274.6763006887426
 20
10.84673060906323
 30
0.0
 40
0.3333333333331439
100
AcDbArc
 50
180.0
 51
0.0
  0
ARC
  5
9A
102
{ACAD_REACTORS
330
B1
102
}
330
4F
100
AcDbEntity
  8
1
  6
Continuous
 62
     7
100
AcDbCircle
 10
282.6763006887426
 20
14.15326939093666
 30
0.0
 40
0.3333333333332903
100
AcDbArc
 50
240.0183606311752
 51
60.01836063110559
  0
ARC
  5
9B
102
{ACAD_REACTORS
330
B1
102
}
330
4F
100
AcDbEntity
  8
1
  6
Continuous
 62
     7
100
AcDbCircle
 10
282.6763006887426
 20
12.5
 30
0.0
 40
0.3333333333333695
100
AcDbArc
 50
270.0
 51
90.0
  0
ARC
  5
9C
102
{ACAD_REACTORS
330
B1
102
}
330
4F
100
AcDbEntity
  8
1
  6
Continuous
 62
     7
100
AcDbCircle
 10
282.6763006887426
 20
10.84673060906323
 30
0.0
 40
0.3333333333334876
100
AcDbArc
 50
299.9816393688841
 51
119.9816393688153
  0
ARC
  5
9D
102
{ACAD_REACTORS
330
AE
102
}
330
4F
100
AcDbEntity
  8
1
  6
Continuous
 62
     7
100
AcDbCircle
 10
278.6763006887426
 20
12.83333333333326
 30
0.0
 40
0.166666666666709
100
AcDbArc
 50
209.9999999999622
 51
330.0000000000475
  0
ARC
  5
9E
102
{ACAD_REACTORS
330
AF
102
}
330
4F
100
AcDbEntity
  8
1
  6
Continuous
 62
     7
100
AcDbCircle
 10
276.3429673554094
 20
10.2700211480327
 30
0.0
 40
0.6666666666668561
100
AcDbArc
 50
180.0000000000104
 51
240.0183606311666
  0
ARC
  5
9F
330
4F
100
AcDbEntity
  8
1
  6
Continuous
 62
     7
100
AcDbCircle
 10
270.3431524891827
 20
12.5
 30
0.0
 40
0.1666666666665555
100
AcDbArc
 50
119.9816393688538
 51
240.0183606311666
  0
ARC
  5
A0
330
4F
100
AcDbEntity
  8
1
  6
Continuous
 62
     7
100
AcDbCircle
 10
287.0094488883025
 20
12.5
 30
0.0
 40
0.1666666666667438
100
AcDbArc
 50
299.9816393688841
 51
60.01836063109538
  0
ARC
  5
A1
102
{ACAD_REACTORS
330
B1
102
}
330
4F
100
AcDbEntity
  8
1
  6
Continuous
 62
     7
100
AcDbCircle
 10
281.3429673554094
 20
14.92250016016737
 30
0.0
 40
0.3333333333333456
100
AcDbArc
 50
60.01836063115814
 51
180.0
  0
ARC
  5
A2
102
{ACAD_REACTORS
330
B1
102
}
330
4F
100
AcDbEntity
  8
1
  6
Continuous
 62
     7
100
AcDbCircle
 10
281.3429673554094
 20
10.07749983983263
 30
0.0
 40
0.3333333333333144
100
AcDbArc
 50
180.0
 51
299.9816393688414
  0
MTEXT
  5
A4
330
4F
100
AcDbEntity
  8
1
 62
     7
100
AcDbMText
 10
119.6000000000001
 20
7.49999999999987
 30
0.0
 40
3.0
 41
0.0
 71
     4
 72
     1
  1
Radice
  7
CONVERTER_11
 73
     1
 44
1.32052821128451
  0
MTEXT
  5
A5
330
4F
100
AcDbEntity
  8
1
 62
     7
100
AcDbMText
 10
109.0000000000001
 20
7.49999999999987
 30
0.0
 40
3.0
 41
0.0
 71
     4
 72
     1
  1
Sign.
  7
CONVERTER_11
 73
     1
 44
1.32052821128451
  0
MTEXT
  5
A6
330
4F
100
AcDbEntity
  8
1
 62
     7
100
AcDbMText
 10
119.6000000000001
 20
12.49999999999987
 30
0.0
 40
3.0
 41
0.0
 71
     4
 72
     1
  1
19/06/14
  7
CONVERTER_11
 73
     1
 44
1.32052821128451
  0
MTEXT
  5
A7
330
4F
100
AcDbEntity
  8
1
 62
     7
100
AcDbMText
 10
109.0000000000001
 20
12.49999999999987
 30
0.0
 40
3.0
 41
0.0
 71
     4
 72
     1
  1
Date
  7
CONVERTER_11
 73
     1
 44
1.32052821128451
  0
MTEXT
  5
A9
330
4F
100
AcDbEntity
  8
1
 62
     7
100
AcDbMText
 10
123.0000000000001
 20
17.49999999999994
 30
0.0
 40
2.5
 41
0.0
 71
     5
 72
     1
  1
dimensions in mm
  7
CONVERTER_12
 73
     1
 44
0.60024009603842
  0
MTEXT
  5
AA
330
4F
100
AcDbEntity
  8
1
 62
     7
100
AcDbMText
 10
151.4999999999997
 20
194.0000000000001
 30
0.0
 40
4.0
 41
0.0
 71
     5
 72
     1
  1
Diritti riservati      All rights reserved
  7
CONVERTER_11
 73
     1
 44
1.32052821128451
  0
MTEXT
  5
AB
330
4F
100
AcDbEntity
  8
1
 62
     7
100
AcDbMText
 10
144.2763006887428
 20
12.5
 30
0.0
 40
4.5
 41
0.0
 71
     4
 72
     1
  1
JMVP 10 LP20\PSurface mounting housing, 1 lever + cover, M20 - JEI
  7
CONVERTER_11
 73
     1
 44
0.90036014405762
  0
MTEXT
  5
AC
330
4F
100
AcDbEntity
  8
1
 62
     7
100
AcDbMText
 10
256.6763006887426
 20
16.26063942075598
 30
0.0
 40
3.0
 41
0.0
 71
     5
 72
     1
  1
Scale
  7
CONVERTER_11
 73
     1
 44
1.32052821128451
  0
MTEXT
  5
AD
330
4F
100
AcDbEntity
  8
1
 62
     7
100
AcDbMText
 10
256.6763006887426
 20
10.06063942075605
 30
0.0
 40
4.5
 41
0.0
 71
     5
 72
     1
  1
1:1
  7
CONVERTER_11
 73
     1
 44
1.32052821128451
  0
HATCH
  5
AE
330
4F
100
AcDbEntity
  8
1
  6
Continuous
 62
     7
100
AcDbHatch
 10
0.0
 20
0.0
 30
0.0
210
0.0
220
0.0
230
1.0
  2
SOLID
 70
     1
 71
     1
 91
        1
 92
        1
 93
       16
 72
     2
 10
277.2746002345513
 20
15.73121731203457
 40
0.2649662124753838
 50
30.00000000000692
 51
180.0
 73
     1
 72
     1
 10
277.009634022076
 20
15.73121731203457
 11
277.009634022076
 21
12.5
 72
     1
 10
277.009634022076
 20
12.5
 11
277.009634022076
 21
10.84758507263291
 72
     2
 10
277.3429673554094
 20
10.84758507263291
 40
0.3333333333334281
 50
180.0
 51
360.0
 73
     1
 72
     1
 10
277.6763006887426
 20
10.84758507263291
 11
277.6763006887426
 21
12.5
 72
     1
 10
277.6763006887426
 20
12.5
 11
277.6763006887426
 21
14.23205080756884
 72
     1
 10
277.6763006887426
 20
14.23205080756884
 11
278.5319631214451
 21
12.75
 72
     2
 10
278.6763006887426
 20
12.83333333333326
 40
0.166666666666709
 50
209.9999999999622
 51
330.0000000000475
 73
     1
 72
     1
 10
278.8206382560401
 20
12.75
 11
279.6763006887426
 21
14.23205080756884
 72
     1
 10
279.6763006887426
 20
14.23205080756884
 11
279.6763006887426
 21
12.5
 72
     1
 10
279.6763006887426
 20
12.5
 11
279.6763006887426
 21
9.30826907060179
 72
     2
 10
280.0096340220761
 20
9.30826907060179
 40
0.3333333333335418
 50
180.0
 51
360.0
 73
     1
 72
     1
 10
280.3429673554094
 20
9.30826907060179
 11
280.3429673554094
 21
15.73121731203457
 72
     2
 10
280.0780011429342
 20
15.73121731203457
 40
0.2649662124752012
 50
0.0
 51
149.9999999999931
 73
     1
 72
     1
 10
279.848533671786
 20
15.86370041827229
 11
278.6763006887426
 21
13.83333333333326
 72
     1
 10
278.6763006887426
 20
13.83333333333326
 11
277.5040677056995
 21
15.86370041827229
 97
       16
330
73
330
95
330
72
330
94
330
71
330
65
330
66
330
9D
330
67
330
68
330
70
330
93
330
6F
330
6D
330
92
330
6E
 75
     0
 76
     1
 98
        1
 10
0.0
 20
0.0
  0
HATCH
  5
AF
330
4F
100
AcDbEntity
  8
1
  6
Continuous
 62
     7
100
AcDbHatch
 10
0.0
 20
0.0
 30
0.0
210
0.0
220
0.0
230
1.0
  2
SOLID
 70
     1
 71
     1
 91
        1
 92
        1
 93
        7
 72
     1
 10
276.3429673554094
 20
14.92250016016737
 11
276.3429673554094
 21
10.2700211480327
 72
     1
 10
276.3429673554094
 20
10.2700211480327
 11
278.5095415065726
 21
9.020074522361599
 72
     2
 10
278.3429673554094
 20
8.731345993678696
 40
0.3333333333333141
 50
299.9816393688416
 51
479.9816393688338
 73
     0
 72
     1
 10
278.1763932042463
 20
8.4426174649958
 11
276.0098190530832
 21
9.6925640906669
 72
     2
 10
276.3429673554094
 20
10.2700211480327
 40
0.6666666666668561
 50
119.9816393688334
 51
179.9999999999896
 73
     0
 72
     1
 10
275.6763006887426
 20
10.27002114803258
 11
275.6763006887426
 21
14.92250016016737
 72
     2
 10
276.009634022076
 20
14.92250016016737
 40
0.3333333333334281
 50
180.0
 51
360.0
 73
     0
 97
        7
330
75
330
76
330
97
330
77
330
9E
330
74
330
96
 75
     0
 76
     1
 98
        1
 10
0.0
 20
0.0
  0
HATCH
  5
B0
330
4F
100
AcDbEntity
  8
1
  6
Continuous
 62
     7
100
AcDbHatch
 10
0.0
 20
0.0
 30
0.0
210
0.0
220
0.0
230
1.0
  2
SOLID
 70
     1
 71
     1
 91
        1
 92
        1
 93
        5
 72
     1
 10
275.009634022076
 20
14.15326939093666
 11
275.009634022076
 21
11.0392519172633
 72
     1
 10
275.009634022076
 20
11.0392519172633
 11
275.009634022076
 21
10.84673060906323
 72
     2
 10
274.6763006887426
 20
10.84673060906323
 40
0.3333333333331439
 50
0.0
 51
180.0
 73
     0
 72
     1
 10
274.3429673554094
 20
10.84673060906323
 11
274.3429673554094
 21
14.15326939093666
 72
     2
 10
274.6763006887426
 20
14.15326939093666
 40
0.3333333333334281
 50
180.0
 51
360.0
 73
     0
 97
        5
330
78
330
79
330
99
330
7A
330
98
 75
     0
 76
     1
 98
        1
 10
0.0
 20
0.0
  0
HATCH
  5
B1
330
4F
100
AcDbEntity
  8
1
  6
Continuous
 62
     7
100
AcDbHatch
 10
0.0
 20
0.0
 30
0.0
210
0.0
220
0.0
230
1.0
  2
SOLID
 70
     1
 71
     1
 91
        1
 92
        1
 93
       14
 72
     1
 10
282.5097265375795
 20
13.86454086225376
 11
281.6763006887426
 21
14.34536346735195
 72
     1
 10
281.6763006887426
 20
14.34536346735195
 11
281.6763006887426
 21
12.83333333333326
 72
     1
 10
281.6763006887426
 20
12.83333333333326
 11
282.6763006887426
 21
12.83333333333326
 72
     2
 10
282.6763006887426
 20
12.5
 40
0.3333333333333695
 50
270.0
 51
450.0
 73
     0
 72
     1
 10
282.6763006887426
 20
12.16666666666663
 11
281.6763006887426
 21
12.16666666666663
 72
     1
 10
281.6763006887426
 20
12.16666666666663
 11
281.6763006887426
 21
10.65463653264794
 72
     1
 10
281.6763006887426
 20
10.65463653264794
 11
282.5097265375795
 21
11.13545913774624
 72
     2
 10
282.6763006887426
 20
10.84673060906323
 40
0.3333333333334876
 50
240.0183606311847
 51
420.0183606311159
 73
     0
 72
     1
 10
282.842874839906
 20
10.55800208038033
 11
281.5095415065726
 21
9.788771311149725
 72
     2
 10
281.3429673554094
 20
10.07749983983263
 40
0.3333333333333144
 50
60.01836063115859
 51
180.0
 73
     0
 72
     1
 10
281.0096340220761
 20
10.07749983983263
 11
281.0096340220761
 21
14.92250016016737
 72
     2
 10
281.3429673554094
 20
14.92250016016737
 40
0.3333333333333456
 50
180.0
 51
299.9816393688419
 73
     0
 72
     1
 10
281.5095415065726
 20
15.21122868885027
 11
282.842874839906
 21
14.44199791961944
 72
     2
 10
282.6763006887426
 20
14.15326939093666
 40
0.3333333333332903
 50
299.9816393688944
 51
479.9816393688249
 73
     0
 97
       14
330
7B
330
A1
330
64
330
A2
330
82
330
9C
330
81
330
80
330
7F
330
9B
330
7E
330
7D
330
7C
330
9A
 75
     0
 76
     1
 98
        1
 10
0.0
 20
0.0
  0
ENDBLK
  5
51
330
4F
100
AcDbEntity
  8
0
100
AcDbBlockEnd
  0
BLOCK
  5
54
330
52
100
AcDbEntity
  8
0
100
AcDbBlockBegin
  2
A4_oriz
 70
     0
 10
297.0000000000002
 20
0.0
 30
0.0
  3
A4_oriz
  1

  0
INSERT
  5
53
330
52
100
AcDbEntity
  8
1
100
AcDbBlockReference
  2
_formato_A4
 10
297.0000000000002
 20
0.0
 30
0.0
  0
ENDBLK
  5
55
330
52
100
AcDbEntity
  8
0
100
AcDbBlockEnd
  0
BLOCK
  5
581
330
579
100
AcDbEntity
  8
0
100
AcDbBlockBegin
  2
*D3
 70
     1
 10
0.0
 20
0.0
 30
0.0
  3
*D3
  1

  0
LINE
  5
57A
330
579
100
AcDbEntity
  8
Bemaßungen_TC_020513_DIN_
  6
Continuous
 62
     7
100
AcDbLine
 10
235.9169300511343
 20
43.95081100033144
 30
0.0
 11
183.9169300511343
 21
43.95081100033144
 31
0.0
  0
LINE
  5
57B
330
579
100
AcDbEntity
  8
Bemaßungen_TC_020513_DIN_
  6
Continuous
 62
     7
100
AcDbLine
 10
235.9169300511343
 20
60.82145340100138
 30
0.0
 11
235.9169300511343
 21
41.95081100033144
 31
0.0
  0
LINE
  5
57C
330
579
100
AcDbEntity
  8
Bemaßungen_TC_020513_DIN_
  6
Continuous
 62
     7
100
AcDbLine
 10
183.9169300511343
 20
60.82145340100138
 30
0.0
 11
183.9169300511343
 21
41.95081100033144
 31
0.0
  0
SOLID
  5
57D
330
579
100
AcDbEntity
  8
Bemaßungen_TC_020513_DIN_
 62
     7
100
AcDbTrace
 10
186.4169300511343
 20
44.27994224429993
 30
0.0
 11
186.4169300511343
 21
43.62167975636295
 31
0.0
 12
183.9169300511343
 22
43.95081100033144
 32
0.0
 13
183.9169300511343
 23
43.95081100033144
 33
0.0
  0
SOLID
  5
57E
330
579
100
AcDbEntity
  8
Bemaßungen_TC_020513_DIN_
 62
     7
100
AcDbTrace
 10
233.4169300511343
 20
43.62167975636295
 30
0.0
 11
233.4169300511343
 21
44.27994224429993
 31
0.0
 12
235.9169300511343
 22
43.95081100033144
 32
0.0
 13
235.9169300511343
 23
43.95081100033144
 33
0.0
  0
MTEXT
  5
580
330
579
100
AcDbEntity
  8
Bemaßungen_TC_020513_DIN_
 62
     7
100
AcDbMText
 10
208.8571813017028
 20
46.94049355617432
 30
0.0
 40
3.5
 41
0.0
 71
     7
 72
     1
  1
52
  7
CONVERTER_13
 11
0.9999999999970619
 21
2.424068405545306E-6
 31
0.0
 73
     1
 44
0.45454545454545
  0
ENDBLK
  5
582
330
579
100
AcDbEntity
  8
0
100
AcDbBlockEnd
  0
BLOCK
  5
58C
330
585
100
AcDbEntity
  8
0
100
AcDbBlockBegin
  2
*D4
 70
     1
 10
0.0
 20
0.0
 30
0.0
  3
*D4
  1

  0
LINE
  5
586
330
585
100
AcDbEntity
  8
Bemaßungen_TC_020513_DIN_
  6
Continuous
 62
     7
100
AcDbLine
 10
229.9169300511353
 20
51.87613280329266
 30
0.0
 11
189.9169300511353
 21
51.87613280329266
 31
0.0
  0
LINE
  5
587
330
585
100
AcDbEntity
  8
Bemaßungen_TC_020513_DIN_
  6
Continuous
 62
     7
100
AcDbLine
 10
229.9169300511353
 20
56.32145340100141
 30
0.0
 11
229.9169300511353
 21
49.87613280329266
 31
0.0
  0
LINE
  5
588
330
585
100
AcDbEntity
  8
Bemaßungen_TC_020513_DIN_
  6
Continuous
 62
     7
100
AcDbLine
 10
189.9169300511353
 20
56.32145340100141
 30
0.0
 11
189.9169300511353
 21
49.87613280329266
 31
0.0
  0
SOLID
  5
589
330
585
100
AcDbEntity
  8
Bemaßungen_TC_020513_DIN_
 62
     7
100
AcDbTrace
 10
192.4169300511353
 20
52.20526404726115
 30
0.0
 11
192.4169300511353
 21
51.54700155932417
 31
0.0
 12
189.9169300511353
 22
51.87613280329266
 32
0.0
 13
189.9169300511353
 23
51.87613280329266
 33
0.0
  0
SOLID
  5
58A
330
585
100
AcDbEntity
  8
Bemaßungen_TC_020513_DIN_
 62
     7
100
AcDbTrace
 10
227.4169300511353
 20
51.54700155932417
 30
0.0
 11
227.4169300511353
 21
52.20526404726115
 31
0.0
 12
229.9169300511353
 22
51.87613280329266
 32
0.0
 13
229.9169300511353
 23
51.87613280329266
 33
0.0
  0
MTEXT
  5
58B
330
585
100
AcDbEntity
  8
Bemaßungen_TC_020513_DIN_
 62
     7
100
AcDbMText
 10
208.7573143167106
 20
54.86581535913554
 30
0.0
 40
3.5
 41
0.0
 71
     7
 72
     1
  1
40
  7
CONVERTER_13
 11
0.9999999999970619
 21
2.424068405545306E-6
 31
0.0
 73
     1
 44
0.45454545454545
  0
ENDBLK
  5
58D
330
585
100
AcDbEntity
  8
0
100
AcDbBlockEnd
  0
BLOCK
  5
597
330
590
100
AcDbEntity
  8
0
100
AcDbBlockBegin
  2
*D5
 70
     1
 10
0.0
 20
0.0
 30
0.0
  3
*D5
  1

  0
LINE
  5
591
330
590
100
AcDbEntity
  8
Bemaßungen_TC_020513_DIN_
  6
Continuous
 62
     7
100
AcDbLine
 10
258.847072488008
 20
54.8214534010014
 30
0.0
 11
258.847072488008
 21
68.82145340100139
 31
0.0
  0
LINE
  5
592
330
590
100
AcDbEntity
  8
Bemaßungen_TC_020513_DIN_
  6
Continuous
 62
     7
100
AcDbLine
 10
236.9169300511342
 20
59.8214534010014
 30
0.0
 11
260.847072488008
 21
59.8214534010014
 31
0.0
  0
LINE
  5
593
330
590
100
AcDbEntity
  8
Bemaßungen_TC_020513_DIN_
  6
Continuous
 62
     7
100
AcDbLine
 10
236.9169300511342
 20
63.8214534010014
 30
0.0
 11
260.847072488008
 21
63.8214534010014
 31
0.0
  0
SOLID
  5
594
330
590
100
AcDbEntity
  8
Bemaßungen_TC_020513_DIN_
 62
     7
100
AcDbTrace
 10
258.5179412440395
 20
66.3214534010014
 30
0.0
 11
259.1762037319765
 21
66.3214534010014
 31
0.0
 12
258.847072488008
 22
63.8214534010014
 32
0.0
 13
258.847072488008
 23
63.8214534010014
 33
0.0
  0
SOLID
  5
595
330
590
100
AcDbEntity
  8
Bemaßungen_TC_020513_DIN_
 62
     7
100
AcDbTrace
 10
259.1762037319765
 20
57.3214534010014
 30
0.0
 11
258.5179412440395
 21
57.3214534010014
 31
0.0
 12
258.847072488008
 22
59.8214534010014
 32
0.0
 13
258.847072488008
 23
59.8214534010014
 33
0.0
  0
MTEXT
  5
596
330
590
100
AcDbEntity
  8
Bemaßungen_TC_020513_DIN_
 62
     7
100
AcDbMText
 10
255.9401073138787
 20
61.34601683892777
 30
0.0
 40
3.5
 41
0.0
 71
     7
 72
     1
  1
4
  7
CONVERTER_13
 11
0.0
 21
1.0
 31
0.0
 73
     1
 44
0.45454545454545
  0
ENDBLK
  5
598
330
590
100
AcDbEntity
  8
0
100
AcDbBlockEnd
  0
BLOCK
  5
5A2
330
59B
100
AcDbEntity
  8
0
100
AcDbBlockBegin
  2
*D6
 70
     1
 10
0.0
 20
0.0
 30
0.0
  3
*D6
  1

  0
LINE
  5
59C
330
59B
100
AcDbEntity
  8
Bemaßungen_TC_020513_DIN_
  6
Continuous
 62
     7
100
AcDbLine
 10
269.9169300511336
 20
59.82145340100148
 30
0.0
 11
269.9169300511336
 21
116.8214534010014
 31
0.0
  0
LINE
  5
59D
330
59B
100
AcDbEntity
  8
Bemaßungen_TC_020513_DIN_
  6
Continuous
 62
     7
100
AcDbLine
 10
236.9169300511335
 20
59.82145340100148
 30
0.0
 11
271.9169300511336
 21
59.82145340100148
 31
0.0
  0
LINE
  5
59E
330
59B
100
AcDbEntity
  8
Bemaßungen_TC_020513_DIN_
  6
Continuous
 62
     7
100
AcDbLine
 10
230.0669300511379
 20
116.8214534010014
 30
0.0
 11
271.9169300511336
 21
116.8214534010014
 31
0.0
  0
SOLID
  5
59F
330
59B
100
AcDbEntity
  8
Bemaßungen_TC_020513_DIN_
 62
     7
100
AcDbTrace
 10
270.2460612951021
 20
114.3214534010014
 30
0.0
 11
269.5877988071651
 21
114.3214534010014
 31
0.0
 12
269.9169300511336
 22
116.8214534010014
 32
0.0
 13
269.9169300511336
 23
116.8214534010014
 33
0.0
  0
SOLID
  5
5A0
330
59B
100
AcDbEntity
  8
Bemaßungen_TC_020513_DIN_
 62
     7
100
AcDbTrace
 10
269.5877988071651
 20
62.32145340100148
 30
0.0
 11
270.2460612951021
 21
62.32145340100148
 31
0.0
 12
269.9169300511336
 22
59.82145340100148
 32
0.0
 13
269.9169300511336
 23
59.82145340100148
 33
0.0
  0
MTEXT
  5
5A1
330
59B
100
AcDbEntity
  8
Bemaßungen_TC_020513_DIN_
 62
     7
100
AcDbMText
 10
266.9241592530096
 20
87.22629878526705
 30
0.0
 40
3.5
 41
0.0
 71
     7
 72
     1
  1
57
  7
CONVERTER_13
 11
0.0
 21
1.0
 31
0.0
 73
     1
 44
0.45454545454545
  0
ENDBLK
  5
5A3
330
59B
100
AcDbEntity
  8
0
100
AcDbBlockEnd
  0
BLOCK
  5
5AD
330
5A6
100
AcDbEntity
  8
0
100
AcDbBlockBegin
  2
*D7
 70
     1
 10
0.0
 20
0.0
 30
0.0
  3
*D7
  1

  0
LINE
  5
5A7
330
5A6
100
AcDbEntity
  8
Bemaßungen_TC_020513_DIN_
  6
Continuous
 62
     7
100
AcDbLine
 10
255.8508800228564
 20
166.3214534010017
 30
0.0
 11
162.6669300511378
 21
166.3214534010015
 31
0.0
  0
LINE
  5
5A8
330
5A6
100
AcDbEntity
  8
Bemaßungen_TC_020513_DIN_
  6
Continuous
 62
     7
100
AcDbLine
 10
255.8508800228565
 20
99.82145340100149
 30
0.0
 11
255.8508800228564
 21
168.3214534010017
 31
0.0
  0
LINE
  5
5A9
330
5A6
100
AcDbEntity
  8
Bemaßungen_TC_020513_DIN_
  6
Continuous
 62
     7
100
AcDbLine
 10
162.6669300511379
 20
157.3214534010015
 30
0.0
 11
162.6669300511378
 21
168.3214534010015
 31
0.0
  0
SOLID
  5
5AA
330
5A6
100
AcDbEntity
  8
Bemaßungen_TC_020513_DIN_
 62
     7
100
AcDbTrace
 10
165.1669300511378
 20
166.65058464497
 30
0.0
 11
165.1669300511378
 21
165.992322157033
 31
0.0
 12
162.6669300511378
 22
166.3214534010015
 32
0.0
 13
162.6669300511378
 23
166.3214534010015
 33
0.0
  0
SOLID
  5
5AB
330
5A6
100
AcDbEntity
  8
Bemaßungen_TC_020513_DIN_
 62
     7
100
AcDbTrace
 10
253.3508800228564
 20
165.9923221570332
 30
0.0
 11
253.3508800228564
 21
166.6505846449702
 31
0.0
 12
255.8508800228564
 22
166.3214534010017
 32
0.0
 13
255.8508800228564
 23
166.3214534010017
 33
0.0
  0
MTEXT
  5
5AC
330
5A6
100
AcDbEntity
  8
Bemaßungen_TC_020513_DIN_
 62
     7
100
AcDbMText
 10
208.1637504212628
 20
169.3135234056848
 30
0.0
 40
3.5
 41
0.0
 71
     7
 72
     1
  1
93
  7
CONVERTER_13
 11
0.9999999999970619
 21
2.424068405545306E-6
 31
0.0
 73
     1
 44
0.45454545454545
  0
ENDBLK
  5
5AE
330
5A6
100
AcDbEntity
  8
0
100
AcDbBlockEnd
  0
BLOCK
  5
5B8
330
5B1
100
AcDbEntity
  8
0
100
AcDbBlockBegin
  2
*D8
 70
     1
 10
0.0
 20
0.0
 30
0.0
  3
*D8
  1

  0
LINE
  5
5B2
330
5B1
100
AcDbEntity
  8
Bemaßungen_TC_020513_DIN_
  6
Continuous
 62
     7
100
AcDbLine
 10
34.03855117922838
 20
59.82145340100139
 30
0.0
 11
34.03855117922838
 21
181.3214534010014
 31
0.0
  0
LINE
  5
5B3
330
5B1
100
AcDbEntity
  8
Bemaßungen_TC_020513_DIN_
  6
Continuous
 62
     7
100
AcDbLine
 10
44.47267636356371
 20
59.82145340100139
 30
0.0
 11
32.03855117922838
 21
59.82145340100139
 31
0.0
  0
LINE
  5
5B4
330
5B1
100
AcDbEntity
  8
Bemaßungen_TC_020513_DIN_
  6
Continuous
 62
     7
100
AcDbLine
 10
82.2226763635637
 20
181.3214534010014
 30
0.0
 11
32.03855117922838
 21
181.3214534010014
 31
0.0
  0
SOLID
  5
5B5
330
5B1
100
AcDbEntity
  8
Bemaßungen_TC_020513_DIN_
 62
     7
100
AcDbTrace
 10
34.36768242319687
 20
178.8214534010014
 30
0.0
 11
33.70941993525989
 21
178.8214534010014
 31
0.0
 12
34.03855117922838
 22
181.3214534010014
 32
0.0
 13
34.03855117922838
 23
181.3214534010014
 33
0.0
  0
SOLID
  5
5B6
330
5B1
100
AcDbEntity
  8
Bemaßungen_TC_020513_DIN_
 62
     7
100
AcDbTrace
 10
33.70941993525989
 20
62.32145340100139
 30
0.0
 11
34.36768242319687
 21
62.32145340100139
 31
0.0
 12
34.03855117922838
 22
59.82145340100139
 32
0.0
 13
34.03855117922838
 23
59.82145340100139
 33
0.0
  0
MTEXT
  5
5B7
330
5B1
100
AcDbEntity
  8
Bemaßungen_TC_020513_DIN_
 62
     7
100
AcDbMText
 10
30.15500065083352
 20
118.6268683623475
 30
0.0
 40
3.5
 41
0.0
 71
     7
 72
     1
  1
121,5
  7
CONVERTER_13
 11
0.0
 21
1.0
 31
0.0
 73
     1
 44
0.45454545454545
  0
ENDBLK
  5
5B9
330
5B1
100
AcDbEntity
  8
0
100
AcDbBlockEnd
  0
BLOCK
  5
5C3
330
5BC
100
AcDbEntity
  8
0
100
AcDbBlockBegin
  2
*D9
 70
     1
 10
0.0
 20
0.0
 30
0.0
  3
*D9
  1

  0
LINE
  5
5BD
330
5BC
100
AcDbEntity
  8
Bemaßungen_TC_020513_DIN_
  6
Continuous
 62
     7
100
AcDbLine
 10
133.9726763635633
 20
144.6603880574728
 30
0.0
 11
50.47267636356329
 21
144.6603880574728
 31
0.0
  0
LINE
  5
5BE
330
5BC
100
AcDbEntity
  8
Bemaßungen_TC_020513_DIN_
  6
Continuous
 62
     7
100
AcDbLine
 10
133.9726763635633
 20
110.8214534010012
 30
0.0
 11
133.9726763635633
 21
146.6603880574728
 31
0.0
  0
LINE
  5
5BF
330
5BC
100
AcDbEntity
  8
Bemaßungen_TC_020513_DIN_
  6
Continuous
 62
     7
100
AcDbLine
 10
50.47267636356329
 20
110.8214534010012
 30
0.0
 11
50.47267636356329
 21
146.6603880574728
 31
0.0
  0
SOLID
  5
5C0
330
5BC
100
AcDbEntity
  8
Bemaßungen_TC_020513_DIN_
 62
     7
100
AcDbTrace
 10
52.97267636356329
 20
144.9895193014413
 30
0.0
 11
52.97267636356329
 21
144.3312568135043
 31
0.0
 12
50.47267636356329
 22
144.6603880574728
 32
0.0
 13
50.47267636356329
 23
144.6603880574728
 33
0.0
  0
SOLID
  5
5C1
330
5BC
100
AcDbEntity
  8
Bemaßungen_TC_020513_DIN_
 62
     7
100
AcDbTrace
 10
131.4726763635633
 20
144.3312568135043
 30
0.0
 11
131.4726763635633
 21
144.9895193014413
 31
0.0
 12
133.9726763635633
 22
144.6603880574728
 32
0.0
 13
133.9726763635633
 23
144.6603880574728
 33
0.0
  0
MTEXT
  5
5C2
330
5BC
100
AcDbEntity
  8
Bemaßungen_TC_020513_DIN_
 62
     7
100
AcDbMText
 10
100.651618218423
 20
148.5439385858676
 30
0.0
 40
3.5
 41
0.0
 71
     7
 72
     1
  1
83,5
  7
CONVERTER_13
 11
0.9999999999970619
 21
2.424068405545306E-6
 31
0.0
 73
     1
 44
0.45454545454545
  0
ENDBLK
  5
5C4
330
5BC
100
AcDbEntity
  8
0
100
AcDbBlockEnd
  0
BLOCK
  5
5CE
330
5C7
100
AcDbEntity
  8
0
100
AcDbBlockBegin
  2
*D10
 70
     1
 10
0.0
 20
0.0
 30
0.0
  3
*D10
  1

  0
LINE
  5
5C8
330
5C7
100
AcDbEntity
  8
Bemaßungen_TC_020513_DIN_
  6
Continuous
 62
     7
100
AcDbLine
 10
138.9726763635637
 20
44.91731365922922
 30
0.0
 11
45.47267636356369
 21
44.91731365922922
 31
0.0
  0
LINE
  5
5C9
330
5C7
100
AcDbEntity
  8
Bemaßungen_TC_020513_DIN_
  6
Continuous
 62
     7
100
AcDbLine
 10
138.9726763635637
 20
60.82145340100148
 30
0.0
 11
138.9726763635637
 21
42.91731365922922
 31
0.0
  0
LINE
  5
5CA
330
5C7
100
AcDbEntity
  8
Bemaßungen_TC_020513_DIN_
  6
Continuous
 62
     7
100
AcDbLine
 10
45.47267636356369
 20
60.82145340100148
 30
0.0
 11
45.47267636356369
 21
42.91731365922922
 31
0.0
  0
SOLID
  5
5CB
330
5C7
100
AcDbEntity
  8
Bemaßungen_TC_020513_DIN_
 62
     7
100
AcDbTrace
 10
47.97267636356369
 20
45.24644490319771
 30
0.0
 11
47.97267636356369
 21
44.58818241526073
 31
0.0
 12
45.47267636356369
 22
44.91731365922922
 32
0.0
 13
45.47267636356369
 23
44.91731365922922
 33
0.0
  0
SOLID
  5
5CC
330
5C7
100
AcDbEntity
  8
Bemaßungen_TC_020513_DIN_
 62
     7
100
AcDbTrace
 10
136.4726763635637
 20
44.58818241526073
 30
0.0
 11
136.4726763635637
 21
45.24644490319771
 31
0.0
 12
138.9726763635637
 22
44.91731365922922
 32
0.0
 13
138.9726763635637
 23
44.91731365922922
 33
0.0
  0
MTEXT
  5
5CD
330
5C7
100
AcDbEntity
  8
Bemaßungen_TC_020513_DIN_
 62
     7
100
AcDbMText
 10
90.79634280285428
 20
48.80086418762406
 30
0.0
 40
3.5
 41
0.0
 71
     7
 72
     1
  1
93,5
  7
CONVERTER_13
 11
0.9999999999970619
 21
2.424068405545306E-6
 31
0.0
 73
     1
 44
0.45454545454545
  0
ENDBLK
  5
5CF
330
5C7
100
AcDbEntity
  8
0
100
AcDbBlockEnd
  0
BLOCK
  5
5D9
330
5D2
100
AcDbEntity
  8
0
100
AcDbBlockBegin
  2
*D11
 70
     1
 10
0.0
 20
0.0
 30
0.0
  3
*D11
  1

  0
LINE
  5
5D3
330
5D2
100
AcDbEntity
  8
Bemaßungen_TC_020513_DIN_
  6
Continuous
 62
     7
100
AcDbLine
 10
64.47267636356369
 20
51.68283227151311
 30
0.0
 11
119.9726763635637
 21
51.68283227151311
 31
0.0
  0
LINE
  5
5D4
330
5D2
100
AcDbEntity
  8
Bemaßungen_TC_020513_DIN_
  6
Continuous
 62
     7
100
AcDbLine
 10
64.47267636356369
 20
58.8214534010014
 30
0.0
 11
64.47267636356369
 21
49.68283227151311
 31
0.0
  0
LINE
  5
5D5
330
5D2
100
AcDbEntity
  8
Bemaßungen_TC_020513_DIN_
  6
Continuous
 62
     7
100
AcDbLine
 10
119.9726763635637
 20
58.8214534010014
 30
0.0
 11
119.9726763635637
 21
49.68283227151311
 31
0.0
  0
SOLID
  5
5D6
330
5D2
100
AcDbEntity
  8
Bemaßungen_TC_020513_DIN_
 62
     7
100
AcDbTrace
 10
117.4726763635637
 20
51.35370102754462
 30
0.0
 11
117.4726763635637
 21
52.0119635154816
 31
0.0
 12
119.9726763635637
 22
51.68283227151311
 32
0.0
 13
119.9726763635637
 23
51.68283227151311
 33
0.0
  0
SOLID
  5
5D7
330
5D2
100
AcDbEntity
  8
Bemaßungen_TC_020513_DIN_
 62
     7
100
AcDbTrace
 10
66.97267636356369
 20
52.0119635154816
 30
0.0
 11
66.97267636356369
 21
51.35370102754462
 31
0.0
 12
64.47267636356369
 22
51.68283227151311
 32
0.0
 13
64.47267636356369
 23
51.68283227151311
 33
0.0
  0
MTEXT
  5
5D8
330
5D2
100
AcDbEntity
  8
Bemaßungen_TC_020513_DIN_
 62
     7
100
AcDbMText
 10
90.0224762846474
 20
55.56947104218906
 30
0.0
 40
3.5
 41
0.0
 71
     7
 72
     1
  1
55,5
  7
CONVERTER_13
 11
0.9999999999970619
 21
2.424068405545306E-6
 31
0.0
 73
     1
 44
0.45454545454545
  0
ENDBLK
  5
5DA
330
5D2
100
AcDbEntity
  8
0
100
AcDbBlockEnd
  0
BLOCK
  5
5E4
330
5DD
100
AcDbEntity
  8
0
100
AcDbBlockBegin
  2
*D12
 70
     1
 10
0.0
 20
0.0
 30
0.0
  3
*D12
  1

  0
LINE
  5
5DE
330
5DD
100
AcDbEntity
  8
Bemaßungen_TC_020513_DIN_
  6
Continuous
 62
     7
100
AcDbLine
 10
148.6679499954049
 20
88.73145340100149
 30
0.0
 11
148.6679499954049
 21
64.65945340100149
 31
0.0
  0
LINE
  5
5DF
330
5DD
100
AcDbEntity
  8
Bemaßungen_TC_020513_DIN_
  6
Continuous
 62
     7
100
AcDbLine
 10
139.9726763635641
 20
88.73145340100149
 30
0.0
 11
150.6679499954049
 21
88.73145340100149
 31
0.0
  0
LINE
  5
5E0
330
5DD
100
AcDbEntity
  8
Bemaßungen_TC_020513_DIN_
  6
Continuous
 62
     7
100
AcDbLine
 10
139.9726763635641
 20
64.65945340100149
 30
0.0
 11
150.6679499954049
 21
64.65945340100149
 31
0.0
  0
SOLID
  5
5E1
330
5DD
100
AcDbEntity
  8
Bemaßungen_TC_020513_DIN_
 62
     7
100
AcDbTrace
 10
148.9970812393734
 20
86.23145340100149
 30
0.0
 11
148.3388187514365
 21
86.23145340100149
 31
0.0
 12
148.6679499954049
 22
88.73145340100149
 32
0.0
 13
148.6679499954049
 23
88.73145340100149
 33
0.0
  0
SOLID
  5
5E2
330
5DD
100
AcDbEntity
  8
Bemaßungen_TC_020513_DIN_
 62
     7
100
AcDbTrace
 10
148.3388187514365
 20
67.15945340100149
 30
0.0
 11
148.9970812393734
 21
67.15945340100149
 31
0.0
 12
148.6679499954049
 22
64.65945340100149
 32
0.0
 13
148.6679499954049
 23
64.65945340100149
 33
0.0
  0
MTEXT
  5
5E3
330
5DD
100
AcDbEntity
  8
Bemaßungen_TC_020513_DIN_
 62
     7
100
AcDbMText
 10
145.9637516827391
 20
73.22717463792735
 30
0.0
 40
3.5
 41
0.0
 71
     7
 72
     1
  1
M20
  7
CONVERTER_13
 11
0.0
 21
1.0
 31
0.0
 73
     1
 44
0.45454545454545
  0
ENDBLK
  5
5E5
330
5DD
100
AcDbEntity
  8
0
100
AcDbBlockEnd
  0
ENDSEC
  0
SECTION
  2
ENTITIES
  0
INSERT
  5
56
330
1F
100
AcDbEntity
  8
0
100
AcDbBlockReference
  2
A4_oriz
 10
297.0000000000002
 20
0.0
 30
0.0
  0
POINT
  5
B2
330
1F
100
AcDbEntity
  8
Bemaßungen_TC_020513_DIN_
 62
     7
100
AcDbPoint
 10
235.916930051134
 20
61.82145340100138
 30
0.0
  0
POINT
  5
B3
330
1F
100
AcDbEntity
  8
Bemaßungen_TC_020513_DIN_
 62
     7
100
AcDbPoint
 10
183.916930051134
 20
61.82145340100138
 30
0.0
  0
POINT
  5
B4
330
1F
100
AcDbEntity
  8
Bemaßungen_TC_020513_DIN_
 62
     7
100
AcDbPoint
 10
229.916930051136
 20
57.32145340100149
 30
0.0
  0
POINT
  5
B5
330
1F
100
AcDbEntity
  8
Bemaßungen_TC_020513_DIN_
 62
     7
100
AcDbPoint
 10
189.916930051136
 20
57.32145340100149
 30
0.0
  0
POINT
  5
B6
330
1F
100
AcDbEntity
  8
Bemaßungen_TC_020513_DIN_
 62
     7
100
AcDbPoint
 10
235.916930051134
 20
59.82145340100149
 30
0.0
  0
POINT
  5
B7
330
1F
100
AcDbEntity
  8
Bemaßungen_TC_020513_DIN_
 62
     7
100
AcDbPoint
 10
235.916930051134
 20
63.82145340100149
 30
0.0
  0
POINT
  5
B8
330
1F
100
AcDbEntity
  8
Bemaßungen_TC_020513_DIN_
 62
     7
100
AcDbPoint
 10
235.916930051134
 20
59.82145340100149
 30
0.0
  0
POINT
  5
B9
330
1F
100
AcDbEntity
  8
Bemaßungen_TC_020513_DIN_
 62
     7
100
AcDbPoint
 10
229.0669300511381
 20
116.8214534010018
 30
0.0
  0
POINT
  5
BA
330
1F
100
AcDbEntity
  8
Bemaßungen_TC_020513_DIN_
 62
     7
100
AcDbPoint
 10
255.8508800228571
 20
98.82145340100178
 30
0.0
  0
POINT
  5
BB
330
1F
100
AcDbEntity
  8
Bemaßungen_TC_020513_DIN_
 62
     7
100
AcDbPoint
 10
162.666930051138
 20
156.3214534010018
 30
0.0
  0
POINT
  5
BC
330
1F
100
AcDbEntity
  8
Bemaßungen_TC_020513_DIN_
 62
     7
100
AcDbPoint
 10
45.47267636356372
 20
59.82145340100149
 30
0.0
  0
POINT
  5
BD
330
1F
100
AcDbEntity
  8
Bemaßungen_TC_020513_DIN_
 62
     7
100
AcDbPoint
 10
83.22267636356372
 20
181.3214534010018
 30
0.0
  0
POINT
  5
BE
330
1F
100
AcDbEntity
  8
Bemaßungen_TC_020513_DIN_
 62
     7
100
AcDbPoint
 10
133.9726763635641
 20
109.8214534010018
 30
0.0
  0
POINT
  5
BF
330
1F
100
AcDbEntity
  8
Bemaßungen_TC_020513_DIN_
 62
     7
100
AcDbPoint
 10
50.47267636356372
 20
109.8214534010018
 30
0.0
  0
POINT
  5
C0
330
1F
100
AcDbEntity
  8
Bemaßungen_TC_020513_DIN_
 62
     7
100
AcDbPoint
 10
138.9726763635641
 20
61.82145340100138
 30
0.0
  0
POINT
  5
C1
330
1F
100
AcDbEntity
  8
Bemaßungen_TC_020513_DIN_
 62
     7
100
AcDbPoint
 10
45.47267636356372
 20
61.82145340100138
 30
0.0
  0
POINT
  5
C2
330
1F
100
AcDbEntity
  8
Bemaßungen_TC_020513_DIN_
 62
     7
100
AcDbPoint
 10
64.47267636356372
 20
59.82145340100149
 30
0.0
  0
POINT
  5
C3
330
1F
100
AcDbEntity
  8
Bemaßungen_TC_020513_DIN_
 62
     7
100
AcDbPoint
 10
119.972676363564
 20
59.82145340100149
 30
0.0
  0
POINT
  5
C4
330
1F
100
AcDbEntity
  8
Bemaßungen_TC_020513_DIN_
 62
     7
100
AcDbPoint
 10
138.9726763635641
 20
64.65945340100137
 30
0.0
  0
POINT
  5
C5
330
1F
100
AcDbEntity
  8
Bemaßungen_TC_020513_DIN_
 62
     7
100
AcDbPoint
 10
138.9726763635641
 20
88.73145340100149
 30
0.0
  0
LINE
  5
37E
330
1F
100
AcDbEntity
  8
Mittellinie_TC_020513_DIN_
  6
CHAIN
 62
     7
100
AcDbLine
 10
92.22267636356372
 20
58.25505035201758
 30
0.0
 11
92.22267636356372
 21
182.1954898142588
 31
0.0
  0
LINE
  5
37F
330
1F
100
AcDbEntity
  8
Mittellinie_TC_020513_DIN_
  6
CHAIN
 62
     7
100
AcDbLine
 10
136.2226763635641
 20
156.3214534010018
 30
0.0
 11
123.222676363564
 21
156.3214534010018
 31
0.0
  0
LINE
  5
380
330
1F
100
AcDbEntity
  8
Mittellinie_TC_020513_DIN_
  6
CHAIN
 62
     7
100
AcDbLine
 10
61.22267636356372
 20
156.3214534010018
 30
0.0
 11
48.22267636356372
 21
156.3214534010018
 31
0.0
  0
LINE
  5
381
330
1F
100
AcDbEntity
  8
Mittellinie_TC_020513_DIN_
  6
CHAIN
 62
     7
100
AcDbLine
 10
49.3726763635637
 20
109.8214534010018
 30
0.0
 11
54.97267636356372
 21
109.8214534010018
 31
0.0
  0
LINE
  5
382
330
1F
100
AcDbEntity
  8
Mittellinie_TC_020513_DIN_
  6
CHAIN
 62
     7
100
AcDbLine
 10
51.3726763635637
 20
109.8214534010018
 30
0.0
 11
59.63267636356369
 21
109.8214534010018
 31
0.0
  0
LINE
  5
383
330
1F
100
AcDbEntity
  8
Mittellinie_TC_020513_DIN_
  6
CHAIN
 62
     7
100
AcDbLine
 10
129.4726763635641
 20
109.8214534010018
 30
0.0
 11
135.072676363564
 21
109.8214534010018
 31
0.0
  0
LINE
  5
384
330
1F
100
AcDbEntity
  8
Mittellinie_TC_020513_DIN_
  6
CHAIN
 62
     7
100
AcDbLine
 10
124.812676363564
 20
109.8214534010018
 30
0.0
 11
133.072676363564
 21
109.8214534010018
 31
0.0
  0
LINE
  5
385
330
1F
100
AcDbEntity
  8
Mittellinie_TC_020513_DIN_
  6
CHAIN
 62
     7
100
AcDbLine
 10
123.472676363564
 20
76.40145340100139
 30
0.0
 11
141.4726763635641
 21
76.40145340100139
 31
0.0
  0
LINE
  5
386
330
1F
100
AcDbEntity
  8
Mittellinie_TC_020513_DIN_
  6
CHAIN
 62
     7
100
AcDbLine
 10
42.97267636356372
 20
76.40145340100139
 30
0.0
 11
60.97267636356372
 21
76.40145340100139
 31
0.0
  0
LINE
  5
387
330
1F
100
AcDbEntity
  8
Mittellinie_TC_020513_DIN_
  6
CHAIN
 62
     7
100
AcDbLine
 10
51.22267636356372
 20
57.32145340100149
 30
0.0
 11
51.22267636356372
 21
66.32145340100138
 31
0.0
  0
LINE
  5
388
330
1F
100
AcDbEntity
  8
Mittellinie_TC_020513_DIN_
  6
CHAIN
 62
     7
100
AcDbLine
 10
133.2226763635641
 20
57.32145340100149
 30
0.0
 11
133.2226763635641
 21
66.32145340100138
 31
0.0
  0
LINE
  5
389
330
1F
100
AcDbEntity
  8
Mittellinie_TC_020513_DIN_
  6
CHAIN
 62
     7
100
AcDbLine
 10
229.916930051136
 20
57.32145340100149
 30
0.0
 11
229.916930051136
 21
66.32145340100138
 31
0.0
  0
LINE
  5
38A
330
1F
100
AcDbEntity
  8
Mittellinie_TC_020513_DIN_
  6
CHAIN
 62
     7
100
AcDbLine
 10
189.916930051136
 20
57.32145340100149
 30
0.0
 11
189.916930051136
 21
66.32145340100138
 31
0.0
  0
LINE
  5
38B
330
1F
100
AcDbEntity
  8
Mittelpunktmarkierung_TC_020513_DIN_
  6
CHAIN
 62
     7
100
AcDbLine
 10
167.166930051135
 20
163.3214534010018
 30
0.0
 11
167.166930051135
 21
149.3214534010018
 31
0.0
  0
LINE
  5
38C
330
1F
100
AcDbEntity
  8
Mittelpunktmarkierung_TC_020513_DIN_
  6
CHAIN
 62
     7
100
AcDbLine
 10
174.166930051136
 20
156.3214534010018
 30
0.0
 11
160.166930051135
 21
156.3214534010018
 31
0.0
  0
LINE
  5
38D
330
1F
100
AcDbEntity
  8
Mittelpunktmarkierung_TC_020513_DIN_
  6
CHAIN
 62
     7
100
AcDbLine
 10
174.166930051145
 20
124.3214534010018
 30
0.0
 11
174.166930051145
 21
115.3214534010018
 31
0.0
  0
LINE
  5
38E
330
1F
100
AcDbEntity
  8
Mittelpunktmarkierung_TC_020513_DIN_
  6
CHAIN
 62
     7
100
AcDbLine
 10
174.166930051145
 20
119.8214534010018
 30
0.0
 11
169.666930051145
 21
119.8214534010018
 31
0.0
  0
LINE
  5
38F
330
1F
100
AcDbEntity
  8
Mittelpunktmarkierung_TC_020513_DIN_
  6
CHAIN
 62
     7
100
AcDbLine
 10
209.916930051136
 20
117.0214534010018
 30
0.0
 11
209.916930051136
 21
102.6214534010018
 31
0.0
  0
LINE
  5
390
330
1F
100
AcDbEntity
  8
Mittelpunktmarkierung_TC_020513_DIN_
  6
CHAIN
 62
     7
100
AcDbLine
 10
217.116930051136
 20
109.8214534010018
 30
0.0
 11
202.716930051136
 21
109.8214534010018
 31
0.0
  0
LINE
  5
391
330
1F
100
AcDbEntity
  8
Mittelpunktmarkierung_TC_020513_DIN_
  6
CHAIN
 62
     7
100
AcDbLine
 10
206.916930051136
 20
103.0714534010018
 30
0.0
 11
206.916930051136
 21
94.57145340100138
 31
0.0
  0
LINE
  5
392
330
1F
100
AcDbEntity
  8
Mittelpunktmarkierung_TC_020513_DIN_
  6
CHAIN
 62
     7
100
AcDbLine
 10
211.166930051136
 20
98.82145340100178
 30
0.0
 11
202.666930051136
 21
98.82145340100178
 31
0.0
  0
LINE
  5
393
330
1F
100
AcDbEntity
  8
Mittelpunktmarkierung_TC_020513_DIN_
  6
CHAIN
 62
     7
100
AcDbLine
 10
209.916930051158
 20
90.6434534010015
 30
0.0
 11
209.916930051158
 21
62.15945340100137
 31
0.0
  0
LINE
  5
394
330
1F
100
AcDbEntity
  8
Mittelpunktmarkierung_TC_020513_DIN_
  6
CHAIN
 62
     7
100
AcDbLine
 10
224.1589300511581
 20
76.40145340100139
 30
0.0
 11
195.674930051158
 21
76.40145340100139
 31
0.0
  0
LINE
  5
395
330
1F
100
AcDbEntity
  8
Sichtbare_Kanten_TC_020513_DIN_
  6
Continuous
 62
     7
100
AcDbLine
 10
169.166930051145
 20
115.8214534010018
 30
0.0
 11
170.166930051145
 21
115.8214534010018
 31
0.0
  0
LINE
  5
396
330
1F
100
AcDbEntity
  8
Sichtbare_Kanten_TC_020513_DIN_
  6
Continuous
 62
     7
100
AcDbLine
 10
178.166930051145
 20
122.8214534010018
 30
0.0
 11
178.166930051145
 21
124.1251803251808
 31
0.0
  0
LINE
  5
397
330
1F
100
AcDbEntity
  8
Sichtbare_Kanten_TC_020513_DIN_
  6
Continuous
 62
     7
100
AcDbLine
 10
177.727864722848
 20
124.6214534010018
 30
0.0
 11
173.666930051146
 21
125.1200734815218
 31
0.0
  0
LINE
  5
398
330
1F
100
AcDbEntity
  8
Sichtbare_Kanten_TC_020513_DIN_
  6
Continuous
 62
     7
100
AcDbLine
 10
163.1265243688501
 20
136.4800488024028
 30
0.0
 11
168.197885401271
 21
116.5745678677068
 31
0.0
  0
LINE
  5
399
330
1F
100
AcDbEntity
  8
Sichtbare_Kanten_TC_020513_DIN_
  6
Continuous
 62
     7
100
AcDbLine
 10
173.666930051145
 20
133.3214534010018
 30
0.0
 11
173.666930051145
 21
124.1125636560628
 31
0.0
  0
LINE
  5
39A
330
1F
100
AcDbEntity
  8
Sichtbare_Kanten_TC_020513_DIN_
  6
Continuous
 62
     7
100
AcDbLine
 10
176.1669300511371
 20
139.3214534010018
 30
0.0
 11
176.166930051139
 21
133.3214534010018
 31
0.0
  0
LINE
  5
39B
330
1F
100
AcDbEntity
  8
Sichtbare_Kanten_TC_020513_DIN_
  6
Continuous
 62
     7
100
AcDbLine
 10
176.166930051139
 20
133.3214534010018
 30
0.0
 11
172.166930051139
 21
133.3214534010018
 31
0.0
  0
LINE
  5
39C
330
1F
100
AcDbEntity
  8
Sichtbare_Kanten_TC_020513_DIN_
  6
Continuous
 62
     7
100
AcDbLine
 10
176.1669300511371
 20
139.3214534010018
 30
0.0
 11
176.1669300511371
 21
173.3214534010018
 31
0.0
  0
LINE
  5
39D
330
1F
100
AcDbEntity
  8
Sichtbare_Kanten_TC_020513_DIN_
  6
Continuous
 62
     7
100
AcDbLine
 10
176.166930051139
 20
179.3214534010018
 30
0.0
 11
176.1669300511371
 21
173.3214534010018
 31
0.0
  0
LINE
  5
39E
330
1F
100
AcDbEntity
  8
Sichtbare_Kanten_TC_020513_DIN_
  6
Continuous
 62
     7
100
AcDbLine
 10
172.1669300511371
 20
173.3214534010018
 30
0.0
 11
172.166930051139
 21
179.3214534010018
 31
0.0
  0
LINE
  5
39F
330
1F
100
AcDbEntity
  8
Sichtbare_Kanten_TC_020513_DIN_
  6
Continuous
 62
     7
100
AcDbLine
 10
172.1669300511371
 20
173.3214534010018
 30
0.0
 11
172.1669300511371
 21
139.3214534010018
 31
0.0
  0
LINE
  5
3A0
330
1F
100
AcDbEntity
  8
Sichtbare_Kanten_TC_020513_DIN_
  6
Continuous
 62
     7
100
AcDbLine
 10
172.166930051139
 20
133.3214534010018
 30
0.0
 11
172.1669300511371
 21
139.3214534010018
 31
0.0
  0
LINE
  5
3A1
330
1F
100
AcDbEntity
  8
Sichtbare_Kanten_TC_020513_DIN_
  6
Continuous
 62
     7
100
AcDbLine
 10
176.166930051139
 20
179.3214534010018
 30
0.0
 11
172.166930051139
 21
179.3214534010018
 31
0.0
  0
LINE
  5
3A2
330
1F
100
AcDbEntity
  8
Sichtbare_Kanten_TC_020513_DIN_
  6
Continuous
 62
     7
100
AcDbLine
 10
172.166930051139
 20
176.3214534010018
 30
0.0
 11
163.666930051139
 21
176.3214534010018
 31
0.0
  0
LINE
  5
3A3
330
1F
100
AcDbEntity
  8
Sichtbare_Kanten_TC_020513_DIN_
  6
Continuous
 62
     7
100
AcDbLine
 10
172.166930051139
 20
136.3214534010018
 30
0.0
 11
163.666930051139
 21
136.3214534010018
 31
0.0
  0
LINE
  5
3A4
330
1F
100
AcDbEntity
  8
Sichtbare_Kanten_TC_020513_DIN_
  6
Continuous
 62
     7
100
AcDbLine
 10
171.166930051145
 20
181.3214534010018
 30
0.0
 11
171.166930051145
 21
176.3214534010018
 31
0.0
  0
LINE
  5
3A5
330
1F
100
AcDbEntity
  8
Sichtbare_Kanten_TC_020513_DIN_
  6
Continuous
 62
     7
100
AcDbLine
 10
174.166930051145
 20
181.3214534010018
 30
0.0
 11
171.166930051145
 21
181.3214534010018
 31
0.0
  0
LINE
  5
3A6
330
1F
100
AcDbEntity
  8
Sichtbare_Kanten_TC_020513_DIN_
  6
Continuous
 62
     7
100
AcDbLine
 10
174.166930051145
 20
181.3214534010018
 30
0.0
 11
174.166930051145
 21
179.3214534010018
 31
0.0
  0
LINE
  5
3A7
330
1F
100
AcDbEntity
  8
Sichtbare_Kanten_TC_020513_DIN_
  6
Continuous
 62
     7
100
AcDbLine
 10
162.666930051139
 20
137.3214534010018
 30
0.0
 11
162.666930051138
 21
139.3214534010018
 31
0.0
  0
LINE
  5
3A8
330
1F
100
AcDbEntity
  8
Sichtbare_Kanten_TC_020513_DIN_
  6
Continuous
 62
     7
100
AcDbLine
 10
162.666930051138
 20
173.3214534010018
 30
0.0
 11
162.666930051138
 21
156.3214534010018
 31
0.0
  0
LINE
  5
3A9
330
1F
100
AcDbEntity
  8
Sichtbare_Kanten_TC_020513_DIN_
  6
Continuous
 62
     7
100
AcDbLine
 10
162.666930051138
 20
173.3214534010018
 30
0.0
 11
162.666930051139
 21
175.3214534010018
 31
0.0
  0
LINE
  5
3AA
330
1F
100
AcDbEntity
  8
Sichtbare_Kanten_TC_020513_DIN_
  6
Continuous
 62
     7
100
AcDbLine
 10
162.666930051138
 20
156.3214534010018
 30
0.0
 11
162.666930051138
 21
139.3214534010018
 31
0.0
  0
LINE
  5
3AB
330
1F
100
AcDbEntity
  8
Sichtbare_Kanten_TC_020513_DIN_
  6
Continuous
 62
     7
100
AcDbLine
 10
239.483567353732
 20
128.3990760385868
 30
0.0
 11
239.483567353732
 21
127.6150771688678
 31
0.0
  0
LINE
  5
3AC
330
1F
100
AcDbEntity
  8
Sichtbare_Kanten_TC_020513_DIN_
  6
Continuous
 62
     7
100
AcDbLine
 10
239.483567353732
 20
127.6150771688678
 30
0.0
 11
239.483567353732
 21
126.9990760385868
 31
0.0
  0
LINE
  5
3AD
330
1F
100
AcDbEntity
  8
Sichtbare_Kanten_TC_020513_DIN_
  6
Continuous
 62
     7
100
AcDbLine
 10
208.316930051136
 20
99.58379848599378
 30
0.0
 11
208.316930051137
 21
99.68379848599378
 31
0.0
  0
LINE
  5
3AE
330
1F
100
AcDbEntity
  8
Sichtbare_Kanten_TC_020513_DIN_
  6
Continuous
 62
     7
100
AcDbLine
 10
205.4169300511371
 20
99.68379848599378
 30
0.0
 11
205.416930051136
 21
99.58379848599378
 31
0.0
  0
LINE
  5
3AF
330
1F
100
AcDbEntity
  8
Sichtbare_Kanten_TC_020513_DIN_
  6
Continuous
 62
     7
100
AcDbLine
 10
236.683567353731
 20
115.6222617074988
 30
0.0
 11
237.467563500793
 21
115.6222617074988
 31
0.0
  0
LINE
  5
3B0
330
1F
100
AcDbEntity
  8
Sichtbare_Kanten_TC_020513_DIN_
  6
Continuous
 62
     7
100
AcDbLine
 10
237.467563500793
 20
115.6222617074988
 30
0.0
 11
238.083567353731
 21
115.6222617074988
 31
0.0
  0
LINE
  5
3B1
330
1F
100
AcDbEntity
  8
Sichtbare_Kanten_TC_020513_DIN_
  6
Continuous
 62
     7
100
AcDbLine
 10
238.21473645188
 20
115.0305961410618
 30
0.0
 11
237.656447363119
 21
114.7702616635088
 31
0.0
  0
LINE
  5
3B2
330
1F
100
AcDbEntity
  8
Sichtbare_Kanten_TC_020513_DIN_
  6
Continuous
 62
     7
100
AcDbLine
 10
237.656447363119
 20
114.7702616635088
 30
0.0
 11
236.945905550029
 21
114.4389305746248
 31
0.0
  0
LINE
  5
3B3
330
1F
100
AcDbEntity
  8
Sichtbare_Kanten_TC_020513_DIN_
  6
Continuous
 62
     7
100
AcDbLine
 10
240.7833321125281
 20
109.5222249708128
 30
0.0
 11
238.21473645188
 21
115.0305961410618
 31
0.0
  0
LINE
  5
3B4
330
1F
100
AcDbEntity
  8
Sichtbare_Kanten_TC_020513_DIN_
  6
Continuous
 62
     7
100
AcDbLine
 10
236.945905550029
 20
114.4389305746248
 30
0.0
 11
239.5145012106761
 21
108.9305594043758
 31
0.0
  0
LINE
  5
3B5
330
1F
100
AcDbEntity
  8
Sichtbare_Kanten_TC_020513_DIN_
  6
Continuous
 62
     7
100
AcDbLine
 10
240.7833321125281
 20
109.5222249708128
 30
0.0
 11
241.409805326117
 21
108.1787488287588
 31
0.0
  0
LINE
  5
3B6
330
1F
100
AcDbEntity
  8
Sichtbare_Kanten_TC_020513_DIN_
  6
Continuous
 62
     7
100
AcDbLine
 10
241.409805326117
 20
108.1787488287588
 30
0.0
 11
240.140974424265
 21
107.5870832623228
 31
0.0
  0
LINE
  5
3B7
330
1F
100
AcDbEntity
  8
Sichtbare_Kanten_TC_020513_DIN_
  6
Continuous
 62
     7
100
AcDbLine
 10
240.140974424265
 20
107.5870832623228
 30
0.0
 11
239.5145012106761
 21
108.9305594043758
 31
0.0
  0
LINE
  5
3B8
330
1F
100
AcDbEntity
  8
Sichtbare_Kanten_TC_020513_DIN_
  6
Continuous
 62
     7
100
AcDbLine
 10
205.416930051136
 20
99.58379848599378
 30
0.0
 11
205.416930051136
 21
98.18379848599378
 31
0.0
  0
LINE
  5
3B9
330
1F
100
AcDbEntity
  8
Sichtbare_Kanten_TC_020513_DIN_
  6
Continuous
 62
     7
100
AcDbLine
 10
205.416930051136
 20
99.58379848599378
 30
0.0
 11
205.916930051136
 21
99.58379848599378
 31
0.0
  0
LINE
  5
3BA
330
1F
100
AcDbEntity
  8
Sichtbare_Kanten_TC_020513_DIN_
  6
Continuous
 62
     7
100
AcDbLine
 10
205.916930051136
 20
98.18379848599378
 30
0.0
 11
205.416930051136
 21
98.18379848599378
 31
0.0
  0
LINE
  5
3BB
330
1F
100
AcDbEntity
  8
Sichtbare_Kanten_TC_020513_DIN_
  6
Continuous
 62
     7
100
AcDbLine
 10
207.816930051136
 20
99.58379848599378
 30
0.0
 11
205.916930051136
 21
99.58379848599378
 31
0.0
  0
LINE
  5
3BC
330
1F
100
AcDbEntity
  8
Sichtbare_Kanten_TC_020513_DIN_
  6
Continuous
 62
     7
100
AcDbLine
 10
205.916930051136
 20
98.18379848599378
 30
0.0
 11
207.816930051136
 21
98.18379848599378
 31
0.0
  0
LINE
  5
3BD
330
1F
100
AcDbEntity
  8
Sichtbare_Kanten_TC_020513_DIN_
  6
Continuous
 62
     7
100
AcDbLine
 10
207.816930051136
 20
99.58379848599378
 30
0.0
 11
208.316930051136
 21
99.58379848599378
 31
0.0
  0
LINE
  5
3BE
330
1F
100
AcDbEntity
  8
Sichtbare_Kanten_TC_020513_DIN_
  6
Continuous
 62
     7
100
AcDbLine
 10
208.316930051136
 20
98.18379848599378
 30
0.0
 11
207.816930051136
 21
98.18379848599378
 31
0.0
  0
LINE
  5
3BF
330
1F
100
AcDbEntity
  8
Sichtbare_Kanten_TC_020513_DIN_
  6
Continuous
 62
     7
100
AcDbLine
 10
208.316930051136
 20
99.58379848599378
 30
0.0
 11
208.316930051136
 21
98.18379848599378
 31
0.0
  0
LINE
  5
3C0
330
1F
100
AcDbEntity
  8
Sichtbare_Kanten_TC_020513_DIN_
  6
Continuous
 62
     7
100
AcDbLine
 10
244.417842746528
 20
128.3990760385868
 30
0.0
 11
239.483567353732
 21
128.3990760385868
 31
0.0
  0
LINE
  5
3C1
330
1F
100
AcDbEntity
  8
Sichtbare_Kanten_TC_020513_DIN_
  6
Continuous
 62
     7
100
AcDbLine
 10
239.483567353732
 20
126.9990760385868
 30
0.0
 11
244.417842746528
 21
126.9990760385868
 31
0.0
  0
LINE
  5
3C2
330
1F
100
AcDbEntity
  8
Sichtbare_Kanten_TC_020513_DIN_
  6
Continuous
 62
     7
100
AcDbLine
 10
245.900204656323
 20
126.9990760385868
 30
0.0
 11
245.900204656323
 21
128.3990760385868
 31
0.0
  0
LINE
  5
3C3
330
1F
100
AcDbEntity
  8
Sichtbare_Kanten_TC_020513_DIN_
  6
Continuous
 62
     7
100
AcDbLine
 10
245.900204656323
 20
126.9990760385868
 30
0.0
 11
244.417842746528
 21
126.9990760385868
 31
0.0
  0
LINE
  5
3C4
330
1F
100
AcDbEntity
  8
Sichtbare_Kanten_TC_020513_DIN_
  6
Continuous
 62
     7
100
AcDbLine
 10
244.417842746528
 20
128.3990760385868
 30
0.0
 11
245.900204656323
 21
128.3990760385868
 31
0.0
  0
LINE
  5
3C5
330
1F
100
AcDbEntity
  8
Sichtbare_Kanten_TC_020513_DIN_
  6
Continuous
 62
     7
100
AcDbLine
 10
236.683567353731
 20
117.1824387359968
 30
0.0
 11
236.683567353731
 21
116.9971434972718
 31
0.0
  0
LINE
  5
3C6
330
1F
100
AcDbEntity
  8
Sichtbare_Kanten_TC_020513_DIN_
  6
Continuous
 62
     7
100
AcDbLine
 10
236.683567353731
 20
116.9971434972718
 30
0.0
 11
236.683567353731
 21
115.6222617074988
 31
0.0
  0
LINE
  5
3C7
330
1F
100
AcDbEntity
  8
Sichtbare_Kanten_TC_020513_DIN_
  6
Continuous
 62
     7
100
AcDbLine
 10
205.4169300511371
 20
99.68379848599378
 30
0.0
 11
205.4169300511371
 21
99.72284121986777
 31
0.0
  0
LINE
  5
3C8
330
1F
100
AcDbEntity
  8
Sichtbare_Kanten_TC_020513_DIN_
  6
Continuous
 62
     7
100
AcDbLine
 10
212.9169300511371
 20
116.1460087213378
 30
0.0
 11
212.9169300511371
 21
117.8214534010018
 31
0.0
  0
LINE
  5
3C9
330
1F
100
AcDbEntity
  8
Sichtbare_Kanten_TC_020513_DIN_
  6
Continuous
 62
     7
100
AcDbLine
 10
212.9169300511371
 20
117.8214534010018
 30
0.0
 11
215.145807987473
 21
121.0365879316998
 31
0.0
  0
LINE
  5
3CA
330
1F
100
AcDbEntity
  8
Sichtbare_Kanten_TC_020513_DIN_
  6
Continuous
 62
     7
100
AcDbLine
 10
215.203932006806
 20
121.4946636680158
 30
0.0
 11
214.1382869983131
 21
124.3803458041288
 31
0.0
  0
LINE
  5
3CB
330
1F
100
AcDbEntity
  8
Sichtbare_Kanten_TC_020513_DIN_
  6
Continuous
 62
     7
100
AcDbLine
 10
205.656648370308
 20
134.8214534010018
 30
0.0
 11
213.656648370308
 21
134.8214534010018
 31
0.0
  0
LINE
  5
3CC
330
1F
100
AcDbEntity
  8
Sichtbare_Kanten_TC_020513_DIN_
  6
Continuous
 62
     7
100
AcDbLine
 10
231.942375577566
 20
129.6649146697918
 30
0.0
 11
235.2835673537271
 21
127.6176949851928
 31
0.0
  0
LINE
  5
3CD
330
1F
100
AcDbEntity
  8
Sichtbare_Kanten_TC_020513_DIN_
  6
Continuous
 62
     7
100
AcDbLine
 10
235.2835673537271
 20
117.1824387359968
 30
0.0
 11
233.9169300511371
 21
117.1824387359968
 31
0.0
  0
LINE
  5
3CE
330
1F
100
AcDbEntity
  8
Sichtbare_Kanten_TC_020513_DIN_
  6
Continuous
 62
     7
100
AcDbLine
 10
233.132630524951
 20
117.5620563916108
 30
0.0
 11
230.3090798142291
 21
121.1316445731938
 31
0.0
  0
LINE
  5
3CF
330
1F
100
AcDbEntity
  8
Sichtbare_Kanten_TC_020513_DIN_
  6
Continuous
 62
     7
100
AcDbLine
 10
229.606738878944
 20
121.2136031640948
 30
0.0
 11
219.492981989709
 21
113.2136031640938
 31
0.0
  0
LINE
  5
3D0
330
1F
100
AcDbEntity
  8
Sichtbare_Kanten_TC_020513_DIN_
  6
Continuous
 62
     7
100
AcDbLine
 10
219.3050758128561
 20
112.8650312723748
 30
0.0
 11
219.1779754575311
 21
111.4122675633048
 31
0.0
  0
LINE
  5
3D1
330
1F
100
AcDbEntity
  8
Sichtbare_Kanten_TC_020513_DIN_
  6
Continuous
 62
     7
100
AcDbLine
 10
208.3530707127711
 20
99.82145340100178
 30
0.0
 11
208.316930051137
 21
99.82145340100178
 31
0.0
  0
LINE
  5
3D2
330
1F
100
AcDbEntity
  8
Sichtbare_Kanten_TC_020513_DIN_
  6
Continuous
 62
     7
100
AcDbLine
 10
208.316930051137
 20
99.82145340100178
 30
0.0
 11
208.316930051137
 21
99.68379848599378
 31
0.0
  0
LINE
  5
3D3
330
1F
100
AcDbEntity
  8
Sichtbare_Kanten_TC_020513_DIN_
  6
Continuous
 62
     7
100
AcDbLine
 10
238.083567353731
 20
115.6222617074988
 30
0.0
 11
238.083567353731
 21
116.9971434972718
 31
0.0
  0
LINE
  5
3D4
330
1F
100
AcDbEntity
  8
Sichtbare_Kanten_TC_020513_DIN_
  6
Continuous
 62
     7
100
AcDbLine
 10
238.083567353731
 20
116.9971434972718
 30
0.0
 11
238.083567353728
 21
117.1824387359968
 31
0.0
  0
LINE
  5
3D5
330
1F
100
AcDbEntity
  8
Sichtbare_Kanten_TC_020513_DIN_
  6
Continuous
 62
     7
100
AcDbLine
 10
236.776066001313
 20
127.1824387359968
 30
0.0
 11
238.083567353728
 21
127.1824387359968
 31
0.0
  0
LINE
  5
3D6
330
1F
100
AcDbEntity
  8
Sichtbare_Kanten_TC_020513_DIN_
  6
Continuous
 62
     7
100
AcDbLine
 10
238.083567353728
 20
117.1824387359968
 30
0.0
 11
235.2835673537271
 21
117.1824387359968
 31
0.0
  0
LINE
  5
3D7
330
1F
100
AcDbEntity
  8
Sichtbare_Kanten_TC_020513_DIN_
  6
Continuous
 62
     7
100
AcDbLine
 10
238.083567353728
 20
127.1824387359968
 30
0.0
 11
238.083567353728
 21
117.1824387359968
 31
0.0
  0
LINE
  5
3D8
330
1F
100
AcDbEntity
  8
Sichtbare_Kanten_TC_020513_DIN_
  6
Continuous
 62
     7
100
AcDbLine
 10
181.166930051143
 20
93.32145340100138
 30
0.0
 11
181.166930051143
 21
112.3214534010018
 31
0.0
  0
LINE
  5
3D9
330
1F
100
AcDbEntity
  8
Sichtbare_Kanten_TC_020513_DIN_
  6
Continuous
 62
     7
100
AcDbLine
 10
185.666930051145
 20
93.32145340100138
 30
0.0
 11
181.166930051143
 21
93.32145340100138
 31
0.0
  0
LINE
  5
3DA
330
1F
100
AcDbEntity
  8
Sichtbare_Kanten_TC_020513_DIN_
  6
Continuous
 62
     7
100
AcDbLine
 10
187.6669300511471
 20
93.32145340100138
 30
0.0
 11
185.666930051145
 21
93.32145340100138
 31
0.0
  0
LINE
  5
3DB
330
1F
100
AcDbEntity
  8
Sichtbare_Kanten_TC_020513_DIN_
  6
Continuous
 62
     7
100
AcDbLine
 10
181.166930051143
 20
112.3214534010018
 30
0.0
 11
187.6669300511471
 21
112.3214534010018
 31
0.0
  0
LINE
  5
3DC
330
1F
100
AcDbEntity
  8
Sichtbare_Kanten_TC_020513_DIN_
  6
Continuous
 62
     7
100
AcDbLine
 10
185.666930051143
 20
91.32145340100149
 30
0.0
 11
171.166930051143
 21
91.32145340100149
 31
0.0
  0
LINE
  5
3DD
330
1F
100
AcDbEntity
  8
Sichtbare_Kanten_TC_020513_DIN_
  6
Continuous
 62
     7
100
AcDbLine
 10
179.166930051143
 20
122.8214534010018
 30
0.0
 11
181.166930051143
 21
112.3214534010018
 31
0.0
  0
LINE
  5
3DE
330
1F
100
AcDbEntity
  8
Sichtbare_Kanten_TC_020513_DIN_
  6
Continuous
 62
     7
100
AcDbLine
 10
171.166930051143
 20
122.8214534010018
 30
0.0
 11
179.166930051143
 21
122.8214534010018
 31
0.0
  0
LINE
  5
3DF
330
1F
100
AcDbEntity
  8
Sichtbare_Kanten_TC_020513_DIN_
  6
Continuous
 62
     7
100
AcDbLine
 10
170.166930051143
 20
92.32145340100149
 30
0.0
 11
170.166930051143
 21
121.8214534010018
 31
0.0
  0
LINE
  5
3E0
330
1F
100
AcDbEntity
  8
Sichtbare_Kanten_TC_020513_DIN_
  6
Continuous
 62
     7
100
AcDbLine
 10
185.666930051145
 20
93.32145340100138
 30
0.0
 11
185.666930051143
 21
91.32145340100149
 31
0.0
  0
LINE
  5
3E1
330
1F
100
AcDbEntity
  8
Sichtbare_Kanten_TC_020513_DIN_
  6
Continuous
 62
     7
100
AcDbLine
 10
185.666930051145
 20
93.32145340100138
 30
0.0
 11
185.6669300511471
 21
101.3214534010018
 31
0.0
  0
LINE
  5
3E2
330
1F
100
AcDbEntity
  8
Sichtbare_Kanten_TC_020513_DIN_
  6
Continuous
 62
     7
100
AcDbLine
 10
187.866930051139
 20
116.8214534010018
 30
0.0
 11
187.866930051139
 21
112.8214534010018
 31
0.0
  0
LINE
  5
3E3
330
1F
100
AcDbEntity
  8
Sichtbare_Kanten_TC_020513_DIN_
  6
Continuous
 62
     7
100
AcDbLine
 10
231.9669300511391
 20
116.8214534010018
 30
0.0
 11
231.9669300511391
 21
112.8214534010018
 31
0.0
  0
LINE
  5
3E4
330
1F
100
AcDbEntity
  8
Sichtbare_Kanten_TC_020513_DIN_
  6
Continuous
 62
     7
100
AcDbLine
 10
231.9669300511391
 20
116.8214534010018
 30
0.0
 11
226.1669300511371
 21
116.8214534010018
 31
0.0
  0
LINE
  5
3E5
330
1F
100
AcDbEntity
  8
Sichtbare_Kanten_TC_020513_DIN_
  6
Continuous
 62
     7
100
AcDbLine
 10
224.054097013316
 20
116.8214534010018
 30
0.0
 11
226.1669300511371
 21
116.8214534010018
 31
0.0
  0
LINE
  5
3E6
330
1F
100
AcDbEntity
  8
Sichtbare_Kanten_TC_020513_DIN_
  6
Continuous
 62
     7
100
AcDbLine
 10
193.6669300511371
 20
116.8214534010018
 30
0.0
 11
212.9169300511371
 21
116.8214534010018
 31
0.0
  0
LINE
  5
3E7
330
1F
100
AcDbEntity
  8
Sichtbare_Kanten_TC_020513_DIN_
  6
Continuous
 62
     7
100
AcDbLine
 10
193.6669300511371
 20
116.8214534010018
 30
0.0
 11
187.866930051139
 21
116.8214534010018
 31
0.0
  0
LINE
  5
3E8
330
1F
100
AcDbEntity
  8
Sichtbare_Kanten_TC_020513_DIN_
  6
Continuous
 62
     7
100
AcDbLine
 10
226.1669300511371
 20
112.8214534010018
 30
0.0
 11
232.166930051139
 21
112.8214534010018
 31
0.0
  0
LINE
  5
3E9
330
1F
100
AcDbEntity
  8
Sichtbare_Kanten_TC_020513_DIN_
  6
Continuous
 62
     7
100
AcDbLine
 10
203.5923747308011
 20
112.8214534010018
 30
0.0
 11
193.6669300511371
 21
112.8214534010018
 31
0.0
  0
LINE
  5
3EA
330
1F
100
AcDbEntity
  8
Sichtbare_Kanten_TC_020513_DIN_
  6
Continuous
 62
     7
100
AcDbLine
 10
226.1669300511371
 20
112.8214534010018
 30
0.0
 11
219.301263243131
 21
112.8214534010018
 31
0.0
  0
LINE
  5
3EB
330
1F
100
AcDbEntity
  8
Sichtbare_Kanten_TC_020513_DIN_
  6
Continuous
 62
     7
100
AcDbLine
 10
187.666930051139
 20
112.8214534010018
 30
0.0
 11
193.6669300511371
 21
112.8214534010018
 31
0.0
  0
LINE
  5
3EC
330
1F
100
AcDbEntity
  8
Sichtbare_Kanten_TC_020513_DIN_
  6
Continuous
 62
     7
100
AcDbLine
 10
187.666930051139
 20
63.82145340100149
 30
0.0
 11
187.666930051139
 21
112.8214534010018
 31
0.0
  0
LINE
  5
3ED
330
1F
100
AcDbEntity
  8
Sichtbare_Kanten_TC_020513_DIN_
  6
Continuous
 62
     7
100
AcDbLine
 10
232.166930051139
 20
110.8214534010018
 30
0.0
 11
232.166930051139
 21
112.8214534010018
 31
0.0
  0
LINE
  5
3EE
330
1F
100
AcDbEntity
  8
Sichtbare_Kanten_TC_020513_DIN_
  6
Continuous
 62
     7
100
AcDbLine
 10
232.166930051139
 20
63.82145340100149
 30
0.0
 11
232.166930051139
 21
103.8214534010018
 31
0.0
  0
LINE
  5
3EF
330
1F
100
AcDbEntity
  8
Sichtbare_Kanten_TC_020513_DIN_
  6
Continuous
 62
     7
100
AcDbLine
 10
197.5869300511341
 20
63.82145340100149
 30
0.0
 11
197.5869300511341
 21
76.40145340100148
 31
0.0
  0
LINE
  5
3F0
330
1F
100
AcDbEntity
  8
Sichtbare_Kanten_TC_020513_DIN_
  6
Continuous
 62
     7
100
AcDbLine
 10
222.246930051134
 20
76.40145340100148
 30
0.0
 11
222.246930051134
 21
63.82145340100149
 31
0.0
  0
LINE
  5
3F1
330
1F
100
AcDbEntity
  8
Sichtbare_Kanten_TC_020513_DIN_
  6
Continuous
 62
     7
100
AcDbLine
 10
183.916930051134
 20
59.82145340100149
 30
0.0
 11
183.916930051134
 21
63.82145340100149
 31
0.0
  0
LINE
  5
3F2
330
1F
100
AcDbEntity
  8
Sichtbare_Kanten_TC_020513_DIN_
  6
Continuous
 62
     7
100
AcDbLine
 10
197.5869300511341
 20
63.82145340100149
 30
0.0
 11
183.916930051134
 21
63.82145340100149
 31
0.0
  0
LINE
  5
3F3
330
1F
100
AcDbEntity
  8
Sichtbare_Kanten_TC_020513_DIN_
  6
Continuous
 62
     7
100
AcDbLine
 10
235.916930051134
 20
63.82145340100149
 30
0.0
 11
222.246930051134
 21
63.82145340100149
 31
0.0
  0
LINE
  5
3F4
330
1F
100
AcDbEntity
  8
Sichtbare_Kanten_TC_020513_DIN_
  6
Continuous
 62
     7
100
AcDbLine
 10
235.916930051134
 20
59.82145340100149
 30
0.0
 11
235.916930051134
 21
63.82145340100149
 31
0.0
  0
LINE
  5
3F5
330
1F
100
AcDbEntity
  8
Sichtbare_Kanten_TC_020513_DIN_
  6
Continuous
 62
     7
100
AcDbLine
 10
235.916930051134
 20
59.82145340100149
 30
0.0
 11
183.916930051134
 21
59.82145340100149
 31
0.0
  0
LINE
  5
3F6
330
1F
100
AcDbEntity
  8
Sichtbare_Kanten_TC_020513_DIN_
  6
Continuous
 62
     7
100
AcDbLine
 10
233.579275136132
 20
97.50481609841077
 30
0.0
 11
233.579275136132
 21
96.66716118340378
 31
0.0
  0
LINE
  5
3F7
330
1F
100
AcDbEntity
  8
Sichtbare_Kanten_TC_020513_DIN_
  6
Continuous
 62
     7
100
AcDbLine
 10
233.579275136132
 20
96.66716118340378
 30
0.0
 11
232.1792751361321
 21
96.66716118340378
 31
0.0
  0
LINE
  5
3F8
330
1F
100
AcDbEntity
  8
Sichtbare_Kanten_TC_020513_DIN_
  6
Continuous
 62
     7
100
AcDbLine
 10
232.1792751361321
 20
97.50481609841077
 30
0.0
 11
232.1792751361321
 21
96.66716118340378
 31
0.0
  0
LINE
  5
3F9
330
1F
100
AcDbEntity
  8
Sichtbare_Kanten_TC_020513_DIN_
  6
Continuous
 62
     7
100
AcDbLine
 10
233.71693005114
 20
99.00481609841077
 30
0.0
 11
233.6792751361321
 21
99.00481609841077
 31
0.0
  0
LINE
  5
3FA
330
1F
100
AcDbEntity
  8
Sichtbare_Kanten_TC_020513_DIN_
  6
Continuous
 62
     7
100
AcDbLine
 10
233.716930051137
 20
97.6048160984108
 30
0.0
 11
233.6792751361321
 21
97.6048160984108
 31
0.0
  0
LINE
  5
3FB
330
1F
100
AcDbEntity
  8
Sichtbare_Kanten_TC_020513_DIN_
  6
Continuous
 62
     7
100
AcDbLine
 10
221.916930051136
 20
103.8214534010018
 30
0.0
 11
232.716930051136
 21
103.8214534010018
 31
0.0
  0
LINE
  5
3FC
330
1F
100
AcDbEntity
  8
Sichtbare_Kanten_TC_020513_DIN_
  6
Continuous
 62
     7
100
AcDbLine
 10
232.716930051136
 20
110.8214534010018
 30
0.0
 11
219.916930051136
 21
110.8214534010018
 31
0.0
  0
LINE
  5
3FD
330
1F
100
AcDbEntity
  8
Sichtbare_Kanten_TC_020513_DIN_
  6
Continuous
 62
     7
100
AcDbLine
 10
202.916930051136
 20
109.8214534010018
 30
0.0
 11
202.916930051136
 21
96.32145340100178
 31
0.0
  0
LINE
  5
3FE
330
1F
100
AcDbEntity
  8
Sichtbare_Kanten_TC_020513_DIN_
  6
Continuous
 62
     7
100
AcDbLine
 10
240.716930051136
 20
100.4048160984108
 30
0.0
 11
240.716930051136
 21
102.8214534010018
 31
0.0
  0
LINE
  5
3FF
330
1F
100
AcDbEntity
  8
Sichtbare_Kanten_TC_020513_DIN_
  6
Continuous
 62
     7
100
AcDbLine
 10
241.1058189400271
 20
97.6048160984108
 30
0.0
 11
240.716930051137
 21
97.6048160984108
 31
0.0
  0
LINE
  5
400
330
1F
100
AcDbEntity
  8
Sichtbare_Kanten_TC_020513_DIN_
  6
Continuous
 62
     7
100
AcDbLine
 10
241.1058189400271
 20
99.00481609841077
 30
0.0
 11
240.716930051138
 21
99.00481609841077
 31
0.0
  0
LINE
  5
401
330
1F
100
AcDbEntity
  8
Sichtbare_Kanten_TC_020513_DIN_
  6
Continuous
 62
     7
100
AcDbLine
 10
244.21693005114
 20
97.6048160984108
 30
0.0
 11
244.21693005114
 21
99.00481609841077
 31
0.0
  0
LINE
  5
402
330
1F
100
AcDbEntity
  8
Sichtbare_Kanten_TC_020513_DIN_
  6
Continuous
 62
     7
100
AcDbLine
 10
241.1058189400271
 20
97.6048160984108
 30
0.0
 11
244.21693005114
 21
97.6048160984108
 31
0.0
  0
LINE
  5
403
330
1F
100
AcDbEntity
  8
Sichtbare_Kanten_TC_020513_DIN_
  6
Continuous
 62
     7
100
AcDbLine
 10
241.1058189400271
 20
99.00481609841077
 30
0.0
 11
244.21693005114
 21
99.00481609841077
 31
0.0
  0
LINE
  5
404
330
1F
100
AcDbEntity
  8
Sichtbare_Kanten_TC_020513_DIN_
  6
Continuous
 62
     7
100
AcDbLine
 10
233.716930051136
 20
102.8214534010018
 30
0.0
 11
233.716930051136
 21
100.4048160984108
 31
0.0
  0
LINE
  5
405
330
1F
100
AcDbEntity
  8
Sichtbare_Kanten_TC_020513_DIN_
  6
Continuous
 62
     7
100
AcDbLine
 10
240.716930051137
 20
97.6048160984108
 30
0.0
 11
233.716930051137
 21
97.6048160984108
 31
0.0
  0
LINE
  5
406
330
1F
100
AcDbEntity
  8
Sichtbare_Kanten_TC_020513_DIN_
  6
Continuous
 62
     7
100
AcDbLine
 10
240.716930051136
 20
100.4048160984108
 30
0.0
 11
240.716930051137
 21
97.6048160984108
 31
0.0
  0
LINE
  5
407
330
1F
100
AcDbEntity
  8
Sichtbare_Kanten_TC_020513_DIN_
  6
Continuous
 62
     7
100
AcDbLine
 10
233.716930051137
 20
97.6048160984108
 30
0.0
 11
233.716930051136
 21
100.4048160984108
 31
0.0
  0
LINE
  5
408
330
1F
100
AcDbEntity
  8
Sichtbare_Kanten_TC_020513_DIN_
  6
Continuous
 62
     7
100
AcDbLine
 10
178.847799046513
 20
122.8214534010018
 30
0.0
 11
178.993152917176
 21
124.1486701197148
 31
0.0
  0
LINE
  5
409
330
1F
100
AcDbEntity
  8
Sichtbare_Kanten_TC_020513_DIN_
  6
Continuous
 62
     7
100
AcDbLine
 10
178.993152917176
 20
124.1486701197148
 30
0.0
 11
179.490181086287
 21
124.0942366822888
 31
0.0
  0
LINE
  5
40A
330
1F
100
AcDbEntity
  8
Sichtbare_Kanten_TC_020513_DIN_
  6
Continuous
 62
     7
100
AcDbLine
 10
179.490181086287
 20
124.0942366822888
 30
0.0
 11
179.283668001209
 21
122.2085791631708
 31
0.0
  0
LINE
  5
40B
330
1F
100
AcDbEntity
  8
Sichtbare_Kanten_TC_020513_DIN_
  6
Continuous
 62
     7
100
AcDbLine
 10
83.22267636356372
 20
133.3214534010018
 30
0.0
 11
83.22267636356372
 21
128.3990760385868
 31
0.0
  0
LINE
  5
40C
330
1F
100
AcDbEntity
  8
Sichtbare_Kanten_TC_020513_DIN_
  6
Continuous
 62
     7
100
AcDbLine
 10
101.222676363564
 20
128.3990760385868
 30
0.0
 11
101.222676363564
 21
133.3214534010018
 31
0.0
  0
LINE
  5
40D
330
1F
100
AcDbEntity
  8
Sichtbare_Kanten_TC_020513_DIN_
  6
Continuous
 62
     7
100
AcDbLine
 10
128.7226763635641
 20
173.3214534010018
 30
0.0
 11
128.7226763635641
 21
139.3214534010018
 31
0.0
  0
LINE
  5
40E
330
1F
100
AcDbEntity
  8
Sichtbare_Kanten_TC_020513_DIN_
  6
Continuous
 62
     7
100
AcDbLine
 10
56.72267636356372
 20
139.3214534010018
 30
0.0
 11
56.72267636356372
 21
173.3214534010018
 31
0.0
  0
LINE
  5
40F
330
1F
100
AcDbEntity
  8
Sichtbare_Kanten_TC_020513_DIN_
  6
Continuous
 62
     7
100
AcDbLine
 10
122.722676363564
 20
134.3214534010018
 30
0.0
 11
61.72267636356372
 21
134.3214534010018
 31
0.0
  0
LINE
  5
410
330
1F
100
AcDbEntity
  8
Sichtbare_Kanten_TC_020513_DIN_
  6
Continuous
 62
     7
100
AcDbLine
 10
122.722676363564
 20
133.3214534010018
 30
0.0
 11
61.72267636356372
 21
133.3214534010018
 31
0.0
  0
LINE
  5
411
330
1F
100
AcDbEntity
  8
Sichtbare_Kanten_TC_020513_DIN_
  6
Continuous
 62
     7
100
AcDbLine
 10
55.72267636356372
 20
139.3214534010018
 30
0.0
 11
55.72267636356372
 21
173.3214534010018
 31
0.0
  0
LINE
  5
412
330
1F
100
AcDbEntity
  8
Sichtbare_Kanten_TC_020513_DIN_
  6
Continuous
 62
     7
100
AcDbLine
 10
127.7226763635637
 20
173.3214534010018
 30
0.0
 11
127.722676363564
 21
139.3214534010018
 31
0.0
  0
LINE
  5
413
330
1F
100
AcDbEntity
  8
Sichtbare_Kanten_TC_020513_DIN_
  6
Continuous
 62
     7
100
AcDbLine
 10
61.72267636356372
 20
178.3214534010018
 30
0.0
 11
122.722676363564
 21
178.3214534010018
 31
0.0
  0
LINE
  5
414
330
1F
100
AcDbEntity
  8
Sichtbare_Kanten_TC_020513_DIN_
  6
Continuous
 62
     7
100
AcDbLine
 10
61.72267636356372
 20
179.3214534010018
 30
0.0
 11
122.722676363564
 21
179.3214534010018
 31
0.0
  0
LINE
  5
415
330
1F
100
AcDbEntity
  8
Sichtbare_Kanten_TC_020513_DIN_
  6
Continuous
 62
     7
100
AcDbLine
 10
123.722676363564
 20
173.3214534010018
 30
0.0
 11
123.722676363564
 21
139.3214534010018
 31
0.0
  0
LINE
  5
416
330
1F
100
AcDbEntity
  8
Sichtbare_Kanten_TC_020513_DIN_
  6
Continuous
 62
     7
100
AcDbLine
 10
61.72267636356372
 20
174.3214534010018
 30
0.0
 11
122.722676363564
 21
174.3214534010018
 31
0.0
  0
LINE
  5
417
330
1F
100
AcDbEntity
  8
Sichtbare_Kanten_TC_020513_DIN_
  6
Continuous
 62
     7
100
AcDbLine
 10
60.72267636356372
 20
139.3214534010018
 30
0.0
 11
60.72267636356384
 21
173.3214534010018
 31
0.0
  0
LINE
  5
418
330
1F
100
AcDbEntity
  8
Sichtbare_Kanten_TC_020513_DIN_
  6
Continuous
 62
     7
100
AcDbLine
 10
122.722676363564
 20
138.3214534010018
 30
0.0
 11
61.72267636356372
 21
138.3214534010018
 31
0.0
  0
LINE
  5
419
330
1F
100
AcDbEntity
  8
Sichtbare_Kanten_TC_020513_DIN_
  6
Continuous
 62
     7
100
AcDbLine
 10
101.222676363564
 20
181.3214534010018
 30
0.0
 11
83.22267636356372
 21
181.3214534010018
 31
0.0
  0
LINE
  5
41A
330
1F
100
AcDbEntity
  8
Sichtbare_Kanten_TC_020513_DIN_
  6
Continuous
 62
     7
100
AcDbLine
 10
101.222676363564
 20
179.3214534010018
 30
0.0
 11
101.222676363564
 21
181.3214534010018
 31
0.0
  0
LINE
  5
41B
330
1F
100
AcDbEntity
  8
Sichtbare_Kanten_TC_020513_DIN_
  6
Continuous
 62
     7
100
AcDbLine
 10
83.22267636356372
 20
181.3214534010018
 30
0.0
 11
83.22267636356372
 21
179.3214534010018
 31
0.0
  0
LINE
  5
41C
330
1F
100
AcDbEntity
  8
Sichtbare_Kanten_TC_020513_DIN_
  6
Continuous
 62
     7
100
AcDbLine
 10
133.7226763635641
 20
160.8214534010018
 30
0.0
 11
128.7226763635641
 21
160.8214534010018
 31
0.0
  0
LINE
  5
41D
330
1F
100
AcDbEntity
  8
Sichtbare_Kanten_TC_020513_DIN_
  6
Continuous
 62
     7
100
AcDbLine
 10
133.7226763635641
 20
151.8214534010018
 30
0.0
 11
128.7226763635641
 21
151.8214534010018
 31
0.0
  0
LINE
  5
41E
330
1F
100
AcDbEntity
  8
Sichtbare_Kanten_TC_020513_DIN_
  6
Continuous
 62
     7
100
AcDbLine
 10
133.7226763635641
 20
160.8214534010018
 30
0.0
 11
133.7226763635641
 21
151.8214534010018
 31
0.0
  0
LINE
  5
41F
330
1F
100
AcDbEntity
  8
Sichtbare_Kanten_TC_020513_DIN_
  6
Continuous
 62
     7
100
AcDbLine
 10
55.72267636356372
 20
160.8214534010018
 30
0.0
 11
50.72267636356372
 21
160.8214534010018
 31
0.0
  0
LINE
  5
420
330
1F
100
AcDbEntity
  8
Sichtbare_Kanten_TC_020513_DIN_
  6
Continuous
 62
     7
100
AcDbLine
 10
55.72267636356372
 20
151.8214534010018
 30
0.0
 11
50.72267636356372
 21
151.8214534010018
 31
0.0
  0
LINE
  5
421
330
1F
100
AcDbEntity
  8
Sichtbare_Kanten_TC_020513_DIN_
  6
Continuous
 62
     7
100
AcDbLine
 10
50.72267636356372
 20
160.8214534010018
 30
0.0
 11
50.72267636356372
 21
151.8214534010018
 31
0.0
  0
LINE
  5
422
330
1F
100
AcDbEntity
  8
Sichtbare_Kanten_TC_020513_DIN_
  6
Continuous
 62
     7
100
AcDbLine
 10
129.9726763635641
 20
127.6176949851928
 30
0.0
 11
129.9726763635641
 21
117.1824387359968
 31
0.0
  0
LINE
  5
423
330
1F
100
AcDbEntity
  8
Sichtbare_Kanten_TC_020513_DIN_
  6
Continuous
 62
     7
100
AcDbLine
 10
129.9726763635641
 20
117.1824387359968
 30
0.0
 11
127.172676363564
 21
117.1824387359968
 31
0.0
  0
LINE
  5
424
330
1F
100
AcDbEntity
  8
Sichtbare_Kanten_TC_020513_DIN_
  6
Continuous
 62
     7
100
AcDbLine
 10
127.172676363564
 20
127.1824387359968
 30
0.0
 11
129.541736891907
 21
127.1824387359968
 31
0.0
  0
LINE
  5
425
330
1F
100
AcDbEntity
  8
Sichtbare_Kanten_TC_020513_DIN_
  6
Continuous
 62
     7
100
AcDbLine
 10
128.572676363564
 20
127.6176949851928
 30
0.0
 11
129.188678276344
 21
127.6176949851928
 31
0.0
  0
LINE
  5
426
330
1F
100
AcDbEntity
  8
Sichtbare_Kanten_TC_020513_DIN_
  6
Continuous
 62
     7
100
AcDbLine
 10
129.188678276344
 20
127.6176949851928
 30
0.0
 11
129.9726763635641
 21
127.6176949851928
 31
0.0
  0
LINE
  5
427
330
1F
100
AcDbEntity
  8
Sichtbare_Kanten_TC_020513_DIN_
  6
Continuous
 62
     7
100
AcDbLine
 10
116.860458719089
 20
114.4389305746248
 30
0.0
 11
116.860458719089
 21
114.7702616635078
 31
0.0
  0
LINE
  5
428
330
1F
100
AcDbEntity
  8
Sichtbare_Kanten_TC_020513_DIN_
  6
Continuous
 62
     7
100
AcDbLine
 10
116.860458719089
 20
114.7702616635078
 30
0.0
 11
116.860458719089
 21
115.0305961410618
 31
0.0
  0
LINE
  5
429
330
1F
100
AcDbEntity
  8
Sichtbare_Kanten_TC_020513_DIN_
  6
Continuous
 62
     7
100
AcDbLine
 10
115.594889438046
 20
126.9990760385868
 30
0.0
 11
115.594889438046
 21
127.6150771688678
 31
0.0
  0
LINE
  5
42A
330
1F
100
AcDbEntity
  8
Sichtbare_Kanten_TC_020513_DIN_
  6
Continuous
 62
     7
100
AcDbLine
 10
115.594889438046
 20
127.6150771688678
 30
0.0
 11
115.594889438046
 21
128.3990760385868
 31
0.0
  0
LINE
  5
42B
330
1F
100
AcDbEntity
  8
Sichtbare_Kanten_TC_020513_DIN_
  6
Continuous
 62
     7
100
AcDbLine
 10
68.85046328908152
 20
128.3990760385868
 30
0.0
 11
68.85046328908152
 21
127.6150771688678
 31
0.0
  0
LINE
  5
42C
330
1F
100
AcDbEntity
  8
Sichtbare_Kanten_TC_020513_DIN_
  6
Continuous
 62
     7
100
AcDbLine
 10
68.85046328908152
 20
127.6150771688678
 30
0.0
 11
68.85046328908152
 21
126.9990760385868
 31
0.0
  0
LINE
  5
42D
330
1F
100
AcDbEntity
  8
Sichtbare_Kanten_TC_020513_DIN_
  6
Continuous
 62
     7
100
AcDbLine
 10
54.90361583522025
 20
127.1824387359968
 30
0.0
 11
57.27267636356373
 21
127.1824387359968
 31
0.0
  0
LINE
  5
42E
330
1F
100
AcDbEntity
  8
Sichtbare_Kanten_TC_020513_DIN_
  6
Continuous
 62
     7
100
AcDbLine
 10
57.27267636356373
 20
117.1824387359968
 30
0.0
 11
54.47267636356372
 21
117.1824387359968
 31
0.0
  0
LINE
  5
42F
330
1F
100
AcDbEntity
  8
Sichtbare_Kanten_TC_020513_DIN_
  6
Continuous
 62
     7
100
AcDbLine
 10
54.47267636356372
 20
127.6176949851928
 30
0.0
 11
55.2566744507846
 21
127.6176949851928
 31
0.0
  0
LINE
  5
430
330
1F
100
AcDbEntity
  8
Sichtbare_Kanten_TC_020513_DIN_
  6
Continuous
 62
     7
100
AcDbLine
 10
55.2566744507846
 20
127.6176949851928
 30
0.0
 11
55.8726763635637
 21
127.6176949851928
 31
0.0
  0
LINE
  5
431
330
1F
100
AcDbEntity
  8
Sichtbare_Kanten_TC_020513_DIN_
  6
Continuous
 62
     7
100
AcDbLine
 10
54.47267636356372
 20
117.1824387359968
 30
0.0
 11
54.47267636356372
 21
127.6176949851928
 31
0.0
  0
LINE
  5
432
330
1F
100
AcDbEntity
  8
Sichtbare_Kanten_TC_020513_DIN_
  6
Continuous
 62
     7
100
AcDbLine
 10
67.58489400803825
 20
115.0305961410618
 30
0.0
 11
67.58489400803825
 21
114.7702616635088
 31
0.0
  0
LINE
  5
433
330
1F
100
AcDbEntity
  8
Sichtbare_Kanten_TC_020513_DIN_
  6
Continuous
 62
     7
100
AcDbLine
 10
67.58489400803825
 20
114.7702616635088
 30
0.0
 11
67.58489400803825
 21
114.4389305746248
 31
0.0
  0
LINE
  5
434
330
1F
100
AcDbEntity
  8
Sichtbare_Kanten_TC_020513_DIN_
  6
Continuous
 62
     7
100
AcDbLine
 10
113.300061413709
 20
107.5870832623228
 30
0.0
 11
71.14529131341845
 21
107.5870832623228
 31
0.0
  0
LINE
  5
435
330
1F
100
AcDbEntity
  8
Sichtbare_Kanten_TC_020513_DIN_
  6
Continuous
 62
     7
100
AcDbLine
 10
71.14529131341845
 20
108.1787488287588
 30
0.0
 11
113.300061413709
 21
108.1787488287588
 31
0.0
  0
LINE
  5
436
330
1F
100
AcDbEntity
  8
Sichtbare_Kanten_TC_020513_DIN_
  6
Continuous
 62
     7
100
AcDbLine
 10
112.340902678735
 20
128.3990760385868
 30
0.0
 11
72.10445004839215
 21
128.3990760385868
 31
0.0
  0
LINE
  5
437
330
1F
100
AcDbEntity
  8
Sichtbare_Kanten_TC_020513_DIN_
  6
Continuous
 62
     7
100
AcDbLine
 10
112.340902678735
 20
126.9990760385868
 30
0.0
 11
72.10445004839215
 21
126.9990760385868
 31
0.0
  0
LINE
  5
438
330
1F
100
AcDbEntity
  8
Sichtbare_Kanten_TC_020513_DIN_
  6
Continuous
 62
     7
100
AcDbLine
 10
69.21343966084021
 20
109.5222249708128
 30
0.0
 11
67.58489400803825
 21
115.0305961410618
 31
0.0
  0
LINE
  5
439
330
1F
100
AcDbEntity
  8
Sichtbare_Kanten_TC_020513_DIN_
  6
Continuous
 62
     7
100
AcDbLine
 10
67.58489400803825
 20
114.4389305746248
 30
0.0
 11
69.21343966084021
 21
108.9305594043758
 31
0.0
  0
LINE
  5
43A
330
1F
100
AcDbEntity
  8
Sichtbare_Kanten_TC_020513_DIN_
  6
Continuous
 62
     7
100
AcDbLine
 10
51.43502144855631
 20
99.58379848599378
 30
0.0
 11
51.43502144855631
 21
98.18379848599378
 31
0.0
  0
LINE
  5
43B
330
1F
100
AcDbEntity
  8
Sichtbare_Kanten_TC_020513_DIN_
  6
Continuous
 62
     7
100
AcDbLine
 10
51.43502144855631
 20
99.58379848599378
 30
0.0
 11
51.93502144855631
 21
99.58379848599378
 31
0.0
  0
LINE
  5
43C
330
1F
100
AcDbEntity
  8
Sichtbare_Kanten_TC_020513_DIN_
  6
Continuous
 62
     7
100
AcDbLine
 10
51.93502144855631
 20
98.18379848599378
 30
0.0
 11
51.43502144855631
 21
98.18379848599378
 31
0.0
  0
LINE
  5
43D
330
1F
100
AcDbEntity
  8
Sichtbare_Kanten_TC_020513_DIN_
  6
Continuous
 62
     7
100
AcDbLine
 10
51.93502144855631
 20
98.18379848599378
 30
0.0
 11
52.47267636356372
 21
98.18379848599378
 31
0.0
  0
LINE
  5
43E
330
1F
100
AcDbEntity
  8
Sichtbare_Kanten_TC_020513_DIN_
  6
Continuous
 62
     7
100
AcDbLine
 10
52.47267636356372
 20
99.58379848599378
 30
0.0
 11
51.93502144855631
 21
99.58379848599378
 31
0.0
  0
LINE
  5
43F
330
1F
100
AcDbEntity
  8
Sichtbare_Kanten_TC_020513_DIN_
  6
Continuous
 62
     7
100
AcDbLine
 10
54.3726763635637
 20
99.58379848599378
 30
0.0
 11
54.13868779214789
 21
99.58379848599378
 31
0.0
  0
LINE
  5
440
330
1F
100
AcDbEntity
  8
Sichtbare_Kanten_TC_020513_DIN_
  6
Continuous
 62
     7
100
AcDbLine
 10
70.1725983958139
 20
128.3990760385868
 30
0.0
 11
68.85046328908152
 21
128.3990760385868
 31
0.0
  0
LINE
  5
441
330
1F
100
AcDbEntity
  8
Sichtbare_Kanten_TC_020513_DIN_
  6
Continuous
 62
     7
100
AcDbLine
 10
68.85046328908152
 20
126.9990760385868
 30
0.0
 11
70.1725983958139
 21
126.9990760385868
 31
0.0
  0
LINE
  5
442
330
1F
100
AcDbEntity
  8
Sichtbare_Kanten_TC_020513_DIN_
  6
Continuous
 62
     7
100
AcDbLine
 10
72.10445004839215
 20
126.9990760385868
 30
0.0
 11
70.1725983958139
 21
126.9990760385868
 31
0.0
  0
LINE
  5
443
330
1F
100
AcDbEntity
  8
Sichtbare_Kanten_TC_020513_DIN_
  6
Continuous
 62
     7
100
AcDbLine
 10
70.1725983958139
 20
128.3990760385868
 30
0.0
 11
72.10445004839215
 21
128.3990760385868
 31
0.0
  0
LINE
  5
444
330
1F
100
AcDbEntity
  8
Sichtbare_Kanten_TC_020513_DIN_
  6
Continuous
 62
     7
100
AcDbLine
 10
54.47267636356372
 20
134.8214534010018
 30
0.0
 11
55.8726763635637
 21
134.8214534010018
 31
0.0
  0
LINE
  5
445
330
1F
100
AcDbEntity
  8
Sichtbare_Kanten_TC_020513_DIN_
  6
Continuous
 62
     7
100
AcDbLine
 10
54.47267636356372
 20
99.82145340100178
 30
0.0
 11
55.8726763635637
 21
99.82145340100178
 31
0.0
  0
LINE
  5
446
330
1F
100
AcDbEntity
  8
Sichtbare_Kanten_TC_020513_DIN_
  6
Continuous
 62
     7
100
AcDbLine
 10
55.8726763635637
 20
99.68379848599378
 30
0.0
 11
55.8726763635637
 21
99.82145340100178
 31
0.0
  0
LINE
  5
447
330
1F
100
AcDbEntity
  8
Sichtbare_Kanten_TC_020513_DIN_
  6
Continuous
 62
     7
100
AcDbLine
 10
55.8726763635637
 20
108.0370517162728
 30
0.0
 11
55.8726763635637
 21
99.82145340100178
 31
0.0
  0
LINE
  5
448
330
1F
100
AcDbEntity
  8
Sichtbare_Kanten_TC_020513_DIN_
  6
Continuous
 62
     7
100
AcDbLine
 10
55.8726763635637
 20
108.0370517162728
 30
0.0
 11
55.8726763635637
 21
112.8650312723758
 31
0.0
  0
LINE
  5
449
330
1F
100
AcDbEntity
  8
Sichtbare_Kanten_TC_020513_DIN_
  6
Continuous
 62
     7
100
AcDbLine
 10
55.8726763635637
 20
112.8650312723758
 30
0.0
 11
55.8726763635637
 21
113.2136031640948
 31
0.0
  0
LINE
  5
44A
330
1F
100
AcDbEntity
  8
Sichtbare_Kanten_TC_020513_DIN_
  6
Continuous
 62
     7
100
AcDbLine
 10
55.8726763635637
 20
113.2136031640948
 30
0.0
 11
55.8726763635637
 21
117.1824387359968
 31
0.0
  0
LINE
  5
44B
330
1F
100
AcDbEntity
  8
Sichtbare_Kanten_TC_020513_DIN_
  6
Continuous
 62
     7
100
AcDbLine
 10
55.8726763635637
 20
127.6176949851928
 30
0.0
 11
55.8726763635637
 21
129.6649146697918
 31
0.0
  0
LINE
  5
44C
330
1F
100
AcDbEntity
  8
Sichtbare_Kanten_TC_020513_DIN_
  6
Continuous
 62
     7
100
AcDbLine
 10
55.8726763635637
 20
134.8214534010018
 30
0.0
 11
55.8726763635637
 21
129.6649146697918
 31
0.0
  0
LINE
  5
44D
330
1F
100
AcDbEntity
  8
Sichtbare_Kanten_TC_020513_DIN_
  6
Continuous
 62
     7
100
AcDbLine
 10
54.47267636356372
 20
129.6649146697918
 30
0.0
 11
54.47267636356372
 21
134.8214534010018
 31
0.0
  0
LINE
  5
44E
330
1F
100
AcDbEntity
  8
Sichtbare_Kanten_TC_020513_DIN_
  6
Continuous
 62
     7
100
AcDbLine
 10
54.47267636356372
 20
129.6649146697918
 30
0.0
 11
54.47267636356372
 21
127.6176949851928
 31
0.0
  0
LINE
  5
44F
330
1F
100
AcDbEntity
  8
Sichtbare_Kanten_TC_020513_DIN_
  6
Continuous
 62
     7
100
AcDbLine
 10
54.47267636356372
 20
117.1824387359968
 30
0.0
 11
54.47267636356372
 21
113.2136031640948
 31
0.0
  0
LINE
  5
450
330
1F
100
AcDbEntity
  8
Sichtbare_Kanten_TC_020513_DIN_
  6
Continuous
 62
     7
100
AcDbLine
 10
54.47267636356372
 20
113.2136031640948
 30
0.0
 11
54.47267636356372
 21
112.8650312723748
 31
0.0
  0
LINE
  5
451
330
1F
100
AcDbEntity
  8
Sichtbare_Kanten_TC_020513_DIN_
  6
Continuous
 62
     7
100
AcDbLine
 10
54.47267636356372
 20
112.8650312723748
 30
0.0
 11
54.47267636356372
 21
108.0370517162728
 31
0.0
  0
LINE
  5
452
330
1F
100
AcDbEntity
  8
Sichtbare_Kanten_TC_020513_DIN_
  6
Continuous
 62
     7
100
AcDbLine
 10
54.47267636356372
 20
99.82145340100178
 30
0.0
 11
54.47267636356372
 21
108.0370517162728
 31
0.0
  0
LINE
  5
453
330
1F
100
AcDbEntity
  8
Sichtbare_Kanten_TC_020513_DIN_
  6
Continuous
 62
     7
100
AcDbLine
 10
54.47267636356372
 20
99.82145340100178
 30
0.0
 11
54.47267636356372
 21
99.68379848599378
 31
0.0
  0
LINE
  5
454
330
1F
100
AcDbEntity
  8
Sichtbare_Kanten_TC_020513_DIN_
  6
Continuous
 62
     7
100
AcDbLine
 10
67.3491935879847
 20
115.6222617074988
 30
0.0
 11
66.98079512272682
 21
116.9971434972718
 31
0.0
  0
LINE
  5
455
330
1F
100
AcDbEntity
  8
Sichtbare_Kanten_TC_020513_DIN_
  6
Continuous
 62
     7
100
AcDbLine
 10
66.73931366615449
 20
117.1824387359968
 30
0.0
 11
57.27267636356373
 21
117.1824387359968
 31
0.0
  0
LINE
  5
456
330
1F
100
AcDbEntity
  8
Sichtbare_Kanten_TC_020513_DIN_
  6
Continuous
 62
     7
100
AcDbLine
 10
57.27267636356373
 20
127.1824387359968
 30
0.0
 11
59.23931366615454
 21
127.1824387359968
 31
0.0
  0
LINE
  5
457
330
1F
100
AcDbEntity
  8
Sichtbare_Kanten_TC_020513_DIN_
  6
Continuous
 62
     7
100
AcDbLine
 10
60.0053581092734
 20
126.8252263456828
 30
0.0
 11
61.08408380170005
 21
125.5396511263098
 31
0.0
  0
LINE
  5
458
330
1F
100
AcDbEntity
  8
Sichtbare_Kanten_TC_020513_DIN_
  6
Continuous
 62
     7
100
AcDbLine
 10
61.85012824481902
 20
125.1824387359968
 30
0.0
 11
66.73931366615449
 21
125.1824387359968
 31
0.0
  0
LINE
  5
459
330
1F
100
AcDbEntity
  8
Sichtbare_Kanten_TC_020513_DIN_
  6
Continuous
 62
     7
100
AcDbLine
 10
116.860458719089
 20
114.4389305746248
 30
0.0
 11
115.231913066287
 21
108.9305594043758
 31
0.0
  0
LINE
  5
45A
330
1F
100
AcDbEntity
  8
Sichtbare_Kanten_TC_020513_DIN_
  6
Continuous
 62
     7
100
AcDbLine
 10
133.010331278571
 20
99.58379848599378
 30
0.0
 11
133.010331278571
 21
98.18379848599378
 31
0.0
  0
LINE
  5
45B
330
1F
100
AcDbEntity
  8
Sichtbare_Kanten_TC_020513_DIN_
  6
Continuous
 62
     7
100
AcDbLine
 10
132.510331278571
 20
98.18379848599378
 30
0.0
 11
133.010331278571
 21
98.18379848599378
 31
0.0
  0
LINE
  5
45C
330
1F
100
AcDbEntity
  8
Sichtbare_Kanten_TC_020513_DIN_
  6
Continuous
 62
     7
100
AcDbLine
 10
132.510331278571
 20
98.18379848599378
 30
0.0
 11
131.9726763635641
 21
98.18379848599378
 31
0.0
  0
LINE
  5
45D
330
1F
100
AcDbEntity
  8
Sichtbare_Kanten_TC_020513_DIN_
  6
Continuous
 62
     7
100
AcDbLine
 10
133.010331278571
 20
99.58379848599378
 30
0.0
 11
132.510331278571
 21
99.58379848599378
 31
0.0
  0
LINE
  5
45E
330
1F
100
AcDbEntity
  8
Sichtbare_Kanten_TC_020513_DIN_
  6
Continuous
 62
     7
100
AcDbLine
 10
131.9726763635641
 20
99.58379848599378
 30
0.0
 11
132.510331278571
 21
99.58379848599378
 31
0.0
  0
LINE
  5
45F
330
1F
100
AcDbEntity
  8
Sichtbare_Kanten_TC_020513_DIN_
  6
Continuous
 62
     7
100
AcDbLine
 10
130.072676363564
 20
99.58379848599378
 30
0.0
 11
130.30666493498
 21
99.58379848599378
 31
0.0
  0
LINE
  5
460
330
1F
100
AcDbEntity
  8
Sichtbare_Kanten_TC_020513_DIN_
  6
Continuous
 62
     7
100
AcDbLine
 10
129.9726763635641
 20
134.8214534010018
 30
0.0
 11
128.572676363564
 21
134.8214534010018
 31
0.0
  0
LINE
  5
461
330
1F
100
AcDbEntity
  8
Sichtbare_Kanten_TC_020513_DIN_
  6
Continuous
 62
     7
100
AcDbLine
 10
129.9726763635641
 20
99.82145340100178
 30
0.0
 11
128.572676363564
 21
99.82145340100178
 31
0.0
  0
LINE
  5
462
330
1F
100
AcDbEntity
  8
Sichtbare_Kanten_TC_020513_DIN_
  6
Continuous
 62
     7
100
AcDbLine
 10
128.572676363564
 20
113.2136031640948
 30
0.0
 11
128.572676363564
 21
117.1824387359968
 31
0.0
  0
LINE
  5
463
330
1F
100
AcDbEntity
  8
Sichtbare_Kanten_TC_020513_DIN_
  6
Continuous
 62
     7
100
AcDbLine
 10
128.572676363564
 20
112.8650312723748
 30
0.0
 11
128.572676363564
 21
113.2136031640948
 31
0.0
  0
LINE
  5
464
330
1F
100
AcDbEntity
  8
Sichtbare_Kanten_TC_020513_DIN_
  6
Continuous
 62
     7
100
AcDbLine
 10
128.572676363564
 20
108.0370517162728
 30
0.0
 11
128.572676363564
 21
112.8650312723748
 31
0.0
  0
LINE
  5
465
330
1F
100
AcDbEntity
  8
Sichtbare_Kanten_TC_020513_DIN_
  6
Continuous
 62
     7
100
AcDbLine
 10
128.572676363564
 20
108.0370517162728
 30
0.0
 11
128.572676363564
 21
99.82145340100178
 31
0.0
  0
LINE
  5
466
330
1F
100
AcDbEntity
  8
Sichtbare_Kanten_TC_020513_DIN_
  6
Continuous
 62
     7
100
AcDbLine
 10
128.572676363564
 20
99.68379848599378
 30
0.0
 11
128.572676363564
 21
99.82145340100178
 31
0.0
  0
LINE
  5
467
330
1F
100
AcDbEntity
  8
Sichtbare_Kanten_TC_020513_DIN_
  6
Continuous
 62
     7
100
AcDbLine
 10
128.572676363564
 20
134.8214534010018
 30
0.0
 11
128.572676363564
 21
129.6649146697918
 31
0.0
  0
LINE
  5
468
330
1F
100
AcDbEntity
  8
Sichtbare_Kanten_TC_020513_DIN_
  6
Continuous
 62
     7
100
AcDbLine
 10
129.9726763635641
 20
129.6649146697918
 30
0.0
 11
129.9726763635641
 21
134.8214534010018
 31
0.0
  0
LINE
  5
469
330
1F
100
AcDbEntity
  8
Sichtbare_Kanten_TC_020513_DIN_
  6
Continuous
 62
     7
100
AcDbLine
 10
129.9726763635641
 20
99.82145340100178
 30
0.0
 11
129.9726763635641
 21
99.68379848599378
 31
0.0
  0
LINE
  5
46A
330
1F
100
AcDbEntity
  8
Sichtbare_Kanten_TC_020513_DIN_
  6
Continuous
 62
     7
100
AcDbLine
 10
129.9726763635641
 20
99.82145340100178
 30
0.0
 11
129.9726763635641
 21
108.0370517162728
 31
0.0
  0
LINE
  5
46B
330
1F
100
AcDbEntity
  8
Sichtbare_Kanten_TC_020513_DIN_
  6
Continuous
 62
     7
100
AcDbLine
 10
129.9726763635641
 20
112.8650312723758
 30
0.0
 11
129.9726763635641
 21
108.0370517162728
 31
0.0
  0
LINE
  5
46C
330
1F
100
AcDbEntity
  8
Sichtbare_Kanten_TC_020513_DIN_
  6
Continuous
 62
     7
100
AcDbLine
 10
129.9726763635641
 20
113.2136031640948
 30
0.0
 11
129.9726763635641
 21
112.8650312723758
 31
0.0
  0
LINE
  5
46D
330
1F
100
AcDbEntity
  8
Sichtbare_Kanten_TC_020513_DIN_
  6
Continuous
 62
     7
100
AcDbLine
 10
129.9726763635641
 20
117.1824387359968
 30
0.0
 11
129.9726763635641
 21
113.2136031640948
 31
0.0
  0
LINE
  5
46E
330
1F
100
AcDbEntity
  8
Sichtbare_Kanten_TC_020513_DIN_
  6
Continuous
 62
     7
100
AcDbLine
 10
128.572676363564
 20
127.6176949851928
 30
0.0
 11
128.572676363564
 21
129.6649146697918
 31
0.0
  0
LINE
  5
46F
330
1F
100
AcDbEntity
  8
Sichtbare_Kanten_TC_020513_DIN_
  6
Continuous
 62
     7
100
AcDbLine
 10
129.9726763635641
 20
129.6649146697918
 30
0.0
 11
129.9726763635641
 21
127.6176949851928
 31
0.0
  0
LINE
  5
470
330
1F
100
AcDbEntity
  8
Sichtbare_Kanten_TC_020513_DIN_
  6
Continuous
 62
     7
100
AcDbLine
 10
114.2727543313141
 20
128.3990760385868
 30
0.0
 11
115.594889438046
 21
128.3990760385868
 31
0.0
  0
LINE
  5
471
330
1F
100
AcDbEntity
  8
Sichtbare_Kanten_TC_020513_DIN_
  6
Continuous
 62
     7
100
AcDbLine
 10
114.2727543313141
 20
128.3990760385868
 30
0.0
 11
112.340902678735
 21
128.3990760385868
 31
0.0
  0
LINE
  5
472
330
1F
100
AcDbEntity
  8
Sichtbare_Kanten_TC_020513_DIN_
  6
Continuous
 62
     7
100
AcDbLine
 10
115.231913066287
 20
109.5222249708128
 30
0.0
 11
116.860458719089
 21
115.0305961410618
 31
0.0
  0
LINE
  5
473
330
1F
100
AcDbEntity
  8
Sichtbare_Kanten_TC_020513_DIN_
  6
Continuous
 62
     7
100
AcDbLine
 10
112.340902678735
 20
126.9990760385868
 30
0.0
 11
114.2727543313141
 21
126.9990760385868
 31
0.0
  0
LINE
  5
474
330
1F
100
AcDbEntity
  8
Sichtbare_Kanten_TC_020513_DIN_
  6
Continuous
 62
     7
100
AcDbLine
 10
115.594889438046
 20
126.9990760385868
 30
0.0
 11
114.2727543313141
 21
126.9990760385868
 31
0.0
  0
LINE
  5
475
330
1F
100
AcDbEntity
  8
Sichtbare_Kanten_TC_020513_DIN_
  6
Continuous
 62
     7
100
AcDbLine
 10
122.595224482308
 20
125.1824387359968
 30
0.0
 11
117.706039060973
 21
125.1824387359968
 31
0.0
  0
LINE
  5
476
330
1F
100
AcDbEntity
  8
Sichtbare_Kanten_TC_020513_DIN_
  6
Continuous
 62
     7
100
AcDbLine
 10
124.439994617854
 20
126.8252263456828
 30
0.0
 11
123.3612689254271
 21
125.5396511263098
 31
0.0
  0
LINE
  5
477
330
1F
100
AcDbEntity
  8
Sichtbare_Kanten_TC_020513_DIN_
  6
Continuous
 62
     7
100
AcDbLine
 10
127.172676363564
 20
127.1824387359968
 30
0.0
 11
125.206039060973
 21
127.1824387359968
 31
0.0
  0
LINE
  5
478
330
1F
100
AcDbEntity
  8
Sichtbare_Kanten_TC_020513_DIN_
  6
Continuous
 62
     7
100
AcDbLine
 10
117.706039060973
 20
117.1824387359968
 30
0.0
 11
127.172676363564
 21
117.1824387359968
 31
0.0
  0
LINE
  5
479
330
1F
100
AcDbEntity
  8
Sichtbare_Kanten_TC_020513_DIN_
  6
Continuous
 62
     7
100
AcDbLine
 10
117.096159139143
 20
115.6222617074988
 30
0.0
 11
117.464557604401
 21
116.9971434972718
 31
0.0
  0
LINE
  5
47A
330
1F
100
AcDbEntity
  8
Sichtbare_Kanten_TC_020513_DIN_
  6
Continuous
 62
     7
100
AcDbLine
 10
92.22267636356372
 20
120.8214534010018
 30
0.0
 11
91.47267636356372
 21
121.8571732767918
 31
0.0
  0
LINE
  5
47B
330
1F
100
AcDbEntity
  8
Sichtbare_Kanten_TC_020513_DIN_
  6
Continuous
 62
     7
100
AcDbLine
 10
91.47267636356372
 20
121.8571732767918
 30
0.0
 11
91.47267636356372
 21
119.1969340367598
 31
0.0
  0
LINE
  5
47C
330
1F
100
AcDbEntity
  8
Sichtbare_Kanten_TC_020513_DIN_
  6
Continuous
 62
     7
100
AcDbLine
 10
90.97267636356372
 20
119.1969340367598
 30
0.0
 11
90.97267636356372
 21
122.6286650729358
 31
0.0
  0
LINE
  5
47D
330
1F
100
AcDbEntity
  8
Sichtbare_Kanten_TC_020513_DIN_
  6
Continuous
 62
     7
100
AcDbLine
 10
92.97267636356372
 20
121.8571732767918
 30
0.0
 11
92.22267636356372
 21
120.8214534010018
 31
0.0
  0
LINE
  5
47E
330
1F
100
AcDbEntity
  8
Sichtbare_Kanten_TC_020513_DIN_
  6
Continuous
 62
     7
100
AcDbLine
 10
92.97267636356372
 20
118.0142417290668
 30
0.0
 11
92.97267636356372
 21
121.8571732767918
 31
0.0
  0
LINE
  5
47F
330
1F
100
AcDbEntity
  8
Sichtbare_Kanten_TC_020513_DIN_
  6
Continuous
 62
     7
100
AcDbLine
 10
93.47267636356372
 20
122.6286650729358
 30
0.0
 11
93.47267636356372
 21
118.0142417290668
 31
0.0
  0
LINE
  5
480
330
1F
100
AcDbEntity
  8
Sichtbare_Kanten_TC_020513_DIN_
  6
Continuous
 62
     7
100
AcDbLine
 10
92.22267636356372
 20
121.6739570760948
 30
0.0
 11
93.02019045723671
 21
122.7752920068158
 31
0.0
  0
LINE
  5
481
330
1F
100
AcDbEntity
  8
Sichtbare_Kanten_TC_020513_DIN_
  6
Continuous
 62
     7
100
AcDbLine
 10
91.42516226989079
 20
122.7752920068158
 30
0.0
 11
92.22267636356372
 21
121.6739570760948
 31
0.0
  0
LINE
  5
482
330
1F
100
AcDbEntity
  8
Sichtbare_Kanten_TC_020513_DIN_
  6
Continuous
 62
     7
100
AcDbLine
 10
90.42267636356371
 20
122.0228958421668
 30
0.0
 11
90.42267636356371
 21
118.7644019409868
 31
0.0
  0
LINE
  5
483
330
1F
100
AcDbEntity
  8
Sichtbare_Kanten_TC_020513_DIN_
  6
Continuous
 62
     7
100
AcDbLine
 10
90.42267636356371
 20
118.7644019409868
 30
0.0
 11
92.3476069769361
 21
117.6538650486558
 31
0.0
  0
LINE
  5
484
330
1F
100
AcDbEntity
  8
Sichtbare_Kanten_TC_020513_DIN_
  6
Continuous
 62
     7
100
AcDbLine
 10
89.92267636356371
 20
118.6200109598368
 30
0.0
 11
89.92267636356371
 21
122.0228958421668
 31
0.0
  0
LINE
  5
485
330
1F
100
AcDbEntity
  8
Sichtbare_Kanten_TC_020513_DIN_
  6
Continuous
 62
     7
100
AcDbLine
 10
92.09774575019134
 20
117.2207722556318
 30
0.0
 11
90.04774575019132
 21
118.4034645633238
 31
0.0
  0
LINE
  5
486
330
1F
100
AcDbEntity
  8
Sichtbare_Kanten_TC_020513_DIN_
  6
Continuous
 62
     7
100
AcDbLine
 10
85.72267636356372
 20
120.3214534010018
 30
0.0
 11
92.22267636356372
 21
124.0714534010018
 31
0.0
  0
LINE
  5
487
330
1F
100
AcDbEntity
  8
Sichtbare_Kanten_TC_020513_DIN_
  6
Continuous
 62
     7
100
AcDbLine
 10
92.22267636356372
 20
116.5714534010018
 30
0.0
 11
85.72267636356372
 21
120.3214534010018
 31
0.0
  0
LINE
  5
488
330
1F
100
AcDbEntity
  8
Sichtbare_Kanten_TC_020513_DIN_
  6
Continuous
 62
     7
100
AcDbLine
 10
92.22267636356372
 20
116.8600751513828
 30
0.0
 11
98.22239866290363
 21
120.3214534010018
 31
0.0
  0
LINE
  5
489
330
1F
100
AcDbEntity
  8
Sichtbare_Kanten_TC_020513_DIN_
  6
Continuous
 62
     7
100
AcDbLine
 10
86.22295406422381
 20
120.3214534010018
 30
0.0
 11
92.22267636356372
 21
116.8600751513828
 31
0.0
  0
LINE
  5
48A
330
1F
100
AcDbEntity
  8
Sichtbare_Kanten_TC_020513_DIN_
  6
Continuous
 62
     7
100
AcDbLine
 10
98.72267636356372
 20
120.3214534010018
 30
0.0
 11
92.22267636356372
 21
116.5714534010018
 31
0.0
  0
LINE
  5
48B
330
1F
100
AcDbEntity
  8
Sichtbare_Kanten_TC_020513_DIN_
  6
Continuous
 62
     7
100
AcDbLine
 10
92.22267636356372
 20
124.0714534010018
 30
0.0
 11
98.72267636356372
 21
120.3214534010018
 31
0.0
  0
LINE
  5
48C
330
1F
100
AcDbEntity
  8
Sichtbare_Kanten_TC_020513_DIN_
  6
Continuous
 62
     7
100
AcDbLine
 10
92.22267636356372
 20
123.7828316506208
 30
0.0
 11
86.22295406422381
 21
120.3214534010018
 31
0.0
  0
LINE
  5
48D
330
1F
100
AcDbEntity
  8
Sichtbare_Kanten_TC_020513_DIN_
  6
Continuous
 62
     7
100
AcDbLine
 10
98.22239866290363
 20
120.3214534010018
 30
0.0
 11
92.22267636356372
 21
123.7828316506208
 31
0.0
  0
LINE
  5
48E
330
1F
100
AcDbEntity
  8
Sichtbare_Kanten_TC_020513_DIN_
  6
Continuous
 62
     7
100
AcDbLine
 10
89.42267636356371
 20
121.4459727652438
 30
0.0
 11
89.42267636356371
 21
119.1969340367598
 31
0.0
  0
LINE
  5
48F
330
1F
100
AcDbEntity
  8
Sichtbare_Kanten_TC_020513_DIN_
  6
Continuous
 62
     7
100
AcDbLine
 10
88.92267636356371
 20
119.1969340367598
 30
0.0
 11
88.92267636356371
 21
121.4459727652438
 31
0.0
  0
LINE
  5
490
330
1F
100
AcDbEntity
  8
Sichtbare_Kanten_TC_020513_DIN_
  6
Continuous
 62
     7
100
AcDbLine
 10
94.3476069769361
 20
122.2682883925248
 30
0.0
 11
95.3476069769361
 21
121.6913653156018
 31
0.0
  0
LINE
  5
491
330
1F
100
AcDbEntity
  8
Sichtbare_Kanten_TC_020513_DIN_
  6
Continuous
 62
     7
100
AcDbLine
 10
95.09774575019134
 20
121.2582725225778
 30
0.0
 11
94.47267636356372
 21
121.6188894764008
 31
0.0
  0
LINE
  5
492
330
1F
100
AcDbEntity
  8
Sichtbare_Kanten_TC_020513_DIN_
  6
Continuous
 62
     7
100
AcDbLine
 10
94.47267636356372
 20
121.6188894764008
 30
0.0
 11
94.47267636356372
 21
120.5714534010018
 31
0.0
  0
LINE
  5
493
330
1F
100
AcDbEntity
  8
Sichtbare_Kanten_TC_020513_DIN_
  6
Continuous
 62
     7
100
AcDbLine
 10
94.47267636356372
 20
120.5714534010018
 30
0.0
 11
95.22267636356372
 21
120.5714534010018
 31
0.0
  0
LINE
  5
494
330
1F
100
AcDbEntity
  8
Sichtbare_Kanten_TC_020513_DIN_
  6
Continuous
 62
     7
100
AcDbLine
 10
93.97267636356372
 20
118.5911648059898
 30
0.0
 11
93.97267636356372
 21
122.0517419960128
 31
0.0
  0
LINE
  5
495
330
1F
100
AcDbEntity
  8
Sichtbare_Kanten_TC_020513_DIN_
  6
Continuous
 62
     7
100
AcDbLine
 10
95.3476069769361
 20
118.9515414864008
 30
0.0
 11
94.3476069769361
 21
118.3746184094778
 31
0.0
  0
LINE
  5
496
330
1F
100
AcDbEntity
  8
Sichtbare_Kanten_TC_020513_DIN_
  6
Continuous
 62
     7
100
AcDbLine
 10
94.47267636356372
 20
119.0240173256018
 30
0.0
 11
95.09774575019134
 21
119.3846342794258
 31
0.0
  0
LINE
  5
497
330
1F
100
AcDbEntity
  8
Sichtbare_Kanten_TC_020513_DIN_
  6
Continuous
 62
     7
100
AcDbLine
 10
94.47267636356372
 20
120.0714534010018
 30
0.0
 11
94.47267636356372
 21
119.0240173256018
 31
0.0
  0
LINE
  5
498
330
1F
100
AcDbEntity
  8
Sichtbare_Kanten_TC_020513_DIN_
  6
Continuous
 62
     7
100
AcDbLine
 10
95.22267636356372
 20
120.0714534010018
 30
0.0
 11
94.47267636356372
 21
120.0714534010018
 31
0.0
  0
LINE
  5
499
330
1F
100
AcDbEntity
  8
Sichtbare_Kanten_TC_020513_DIN_
  6
Continuous
 62
     7
100
AcDbLine
 10
138.9726763635641
 20
88.73145340100149
 30
0.0
 11
127.222676363564
 21
88.73145340100149
 31
0.0
  0
LINE
  5
49A
330
1F
100
AcDbEntity
  8
Sichtbare_Kanten_TC_020513_DIN_
  6
Continuous
 62
     7
100
AcDbLine
 10
138.9726763635641
 20
76.40145340100148
 30
0.0
 11
138.9726763635641
 21
63.82145340100149
 31
0.0
  0
LINE
  5
49B
330
1F
100
AcDbEntity
  8
Sichtbare_Kanten_TC_020513_DIN_
  6
Continuous
 62
     7
100
AcDbLine
 10
138.9726763635641
 20
76.40145340100148
 30
0.0
 11
138.9726763635641
 21
88.73145340100149
 31
0.0
  0
LINE
  5
49C
330
1F
100
AcDbEntity
  8
Sichtbare_Kanten_TC_020513_DIN_
  6
Continuous
 62
     7
100
AcDbLine
 10
57.13267636356369
 20
108.3214534010018
 30
0.0
 11
57.22267636356372
 21
108.3214534010018
 31
0.0
  0
LINE
  5
49D
330
1F
100
AcDbEntity
  8
Sichtbare_Kanten_TC_020513_DIN_
  6
Continuous
 62
     7
100
AcDbLine
 10
57.13267636356369
 20
111.3214534010018
 30
0.0
 11
57.22267636356372
 21
111.3214534010018
 31
0.0
  0
LINE
  5
49E
330
1F
100
AcDbEntity
  8
Sichtbare_Kanten_TC_020513_DIN_
  6
Continuous
 62
     7
100
AcDbLine
 10
51.8726763635637
 20
107.3214534010018
 30
0.0
 11
52.47267636356372
 21
107.3214534010018
 31
0.0
  0
LINE
  5
49F
330
1F
100
AcDbEntity
  8
Sichtbare_Kanten_TC_020513_DIN_
  6
Continuous
 62
     7
100
AcDbLine
 10
51.8726763635637
 20
112.3214534010018
 30
0.0
 11
52.47267636356372
 21
112.3214534010018
 31
0.0
  0
LINE
  5
4A0
330
1F
100
AcDbEntity
  8
Sichtbare_Kanten_TC_020513_DIN_
  6
Continuous
 62
     7
100
AcDbLine
 10
55.8726763635637
 20
107.3214534010018
 30
0.0
 11
57.13267636356369
 21
107.3214534010018
 31
0.0
  0
LINE
  5
4A1
330
1F
100
AcDbEntity
  8
Sichtbare_Kanten_TC_020513_DIN_
  6
Continuous
 62
     7
100
AcDbLine
 10
53.8726763635637
 20
107.3214534010018
 30
0.0
 11
54.47267636356372
 21
107.3214534010018
 31
0.0
  0
LINE
  5
4A2
330
1F
100
AcDbEntity
  8
Sichtbare_Kanten_TC_020513_DIN_
  6
Continuous
 62
     7
100
AcDbLine
 10
55.8726763635637
 20
112.3214534010018
 30
0.0
 11
57.13267636356369
 21
112.3214534010018
 31
0.0
  0
LINE
  5
4A3
330
1F
100
AcDbEntity
  8
Sichtbare_Kanten_TC_020513_DIN_
  6
Continuous
 62
     7
100
AcDbLine
 10
53.8726763635637
 20
112.3214534010018
 30
0.0
 11
54.47267636356372
 21
112.3214534010018
 31
0.0
  0
LINE
  5
4A4
330
1F
100
AcDbEntity
  8
Sichtbare_Kanten_TC_020513_DIN_
  6
Continuous
 62
     7
100
AcDbLine
 10
57.13267636356369
 20
107.3214534010018
 30
0.0
 11
57.13267636356369
 21
112.3214534010018
 31
0.0
  0
LINE
  5
4A5
330
1F
100
AcDbEntity
  8
Sichtbare_Kanten_TC_020513_DIN_
  6
Continuous
 62
     7
100
AcDbLine
 10
51.8726763635637
 20
105.8214534010018
 30
0.0
 11
51.8726763635637
 21
113.8214534010018
 31
0.0
  0
LINE
  5
4A6
330
1F
100
AcDbEntity
  8
Sichtbare_Kanten_TC_020513_DIN_
  6
Continuous
 62
     7
100
AcDbLine
 10
50.47267636356372
 20
105.8214534010018
 30
0.0
 11
50.47267636356372
 21
113.8214534010018
 31
0.0
  0
LINE
  5
4A7
330
1F
100
AcDbEntity
  8
Sichtbare_Kanten_TC_020513_DIN_
  6
Continuous
 62
     7
100
AcDbLine
 10
127.222676363564
 20
108.3214534010018
 30
0.0
 11
127.312676363564
 21
108.3214534010018
 31
0.0
  0
LINE
  5
4A8
330
1F
100
AcDbEntity
  8
Sichtbare_Kanten_TC_020513_DIN_
  6
Continuous
 62
     7
100
AcDbLine
 10
127.222676363564
 20
111.3214534010018
 30
0.0
 11
127.312676363564
 21
111.3214534010018
 31
0.0
  0
LINE
  5
4A9
330
1F
100
AcDbEntity
  8
Sichtbare_Kanten_TC_020513_DIN_
  6
Continuous
 62
     7
100
AcDbLine
 10
131.9726763635641
 20
107.3214534010018
 30
0.0
 11
132.572676363564
 21
107.3214534010018
 31
0.0
  0
LINE
  5
4AA
330
1F
100
AcDbEntity
  8
Sichtbare_Kanten_TC_020513_DIN_
  6
Continuous
 62
     7
100
AcDbLine
 10
131.9726763635641
 20
112.3214534010018
 30
0.0
 11
132.572676363564
 21
112.3214534010018
 31
0.0
  0
LINE
  5
4AB
330
1F
100
AcDbEntity
  8
Sichtbare_Kanten_TC_020513_DIN_
  6
Continuous
 62
     7
100
AcDbLine
 10
129.9726763635641
 20
107.3214534010018
 30
0.0
 11
130.572676363564
 21
107.3214534010018
 31
0.0
  0
LINE
  5
4AC
330
1F
100
AcDbEntity
  8
Sichtbare_Kanten_TC_020513_DIN_
  6
Continuous
 62
     7
100
AcDbLine
 10
127.312676363564
 20
107.3214534010018
 30
0.0
 11
128.572676363564
 21
107.3214534010018
 31
0.0
  0
LINE
  5
4AD
330
1F
100
AcDbEntity
  8
Sichtbare_Kanten_TC_020513_DIN_
  6
Continuous
 62
     7
100
AcDbLine
 10
129.9726763635641
 20
112.3214534010018
 30
0.0
 11
130.572676363564
 21
112.3214534010018
 31
0.0
  0
LINE
  5
4AE
330
1F
100
AcDbEntity
  8
Sichtbare_Kanten_TC_020513_DIN_
  6
Continuous
 62
     7
100
AcDbLine
 10
127.312676363564
 20
112.3214534010018
 30
0.0
 11
128.572676363564
 21
112.3214534010018
 31
0.0
  0
LINE
  5
4AF
330
1F
100
AcDbEntity
  8
Sichtbare_Kanten_TC_020513_DIN_
  6
Continuous
 62
     7
100
AcDbLine
 10
127.312676363564
 20
107.3214534010018
 30
0.0
 11
127.312676363564
 21
112.3214534010018
 31
0.0
  0
LINE
  5
4B0
330
1F
100
AcDbEntity
  8
Sichtbare_Kanten_TC_020513_DIN_
  6
Continuous
 62
     7
100
AcDbLine
 10
132.572676363564
 20
105.8214534010018
 30
0.0
 11
132.572676363564
 21
113.8214534010018
 31
0.0
  0
LINE
  5
4B1
330
1F
100
AcDbEntity
  8
Sichtbare_Kanten_TC_020513_DIN_
  6
Continuous
 62
     7
100
AcDbLine
 10
133.9726763635641
 20
105.8214534010018
 30
0.0
 11
133.9726763635641
 21
113.8214534010018
 31
0.0
  0
LINE
  5
4B2
330
1F
100
AcDbEntity
  8
Sichtbare_Kanten_TC_020513_DIN_
  6
Continuous
 62
     7
100
AcDbLine
 10
57.42267636356371
 20
116.8214534010018
 30
0.0
 11
57.42267636356371
 21
112.8214534010018
 31
0.0
  0
LINE
  5
4B3
330
1F
100
AcDbEntity
  8
Sichtbare_Kanten_TC_020513_DIN_
  6
Continuous
 62
     7
100
AcDbLine
 10
127.022676363564
 20
116.8214534010018
 30
0.0
 11
127.022676363564
 21
112.8214534010018
 31
0.0
  0
LINE
  5
4B4
330
1F
100
AcDbEntity
  8
Sichtbare_Kanten_TC_020513_DIN_
  6
Continuous
 62
     7
100
AcDbLine
 10
127.022676363564
 20
116.8214534010018
 30
0.0
 11
121.222676363564
 21
116.8214534010018
 31
0.0
  0
LINE
  5
4B5
330
1F
100
AcDbEntity
  8
Sichtbare_Kanten_TC_020513_DIN_
  6
Continuous
 62
     7
100
AcDbLine
 10
117.417481584987
 20
116.8214534010018
 30
0.0
 11
121.222676363564
 21
116.8214534010018
 31
0.0
  0
LINE
  5
4B6
330
1F
100
AcDbEntity
  8
Sichtbare_Kanten_TC_020513_DIN_
  6
Continuous
 62
     7
100
AcDbLine
 10
63.22267636356372
 20
116.8214534010018
 30
0.0
 11
67.02787114214061
 21
116.8214534010018
 31
0.0
  0
LINE
  5
4B7
330
1F
100
AcDbEntity
  8
Sichtbare_Kanten_TC_020513_DIN_
  6
Continuous
 62
     7
100
AcDbLine
 10
63.22267636356372
 20
116.8214534010018
 30
0.0
 11
57.42267636356371
 21
116.8214534010018
 31
0.0
  0
LINE
  5
4B8
330
1F
100
AcDbEntity
  8
Sichtbare_Kanten_TC_020513_DIN_
  6
Continuous
 62
     7
100
AcDbLine
 10
57.22267636356372
 20
99.00481609841077
 30
0.0
 11
57.22267636356372
 21
112.8214534010018
 31
0.0
  0
LINE
  5
4B9
330
1F
100
AcDbEntity
  8
Sichtbare_Kanten_TC_020513_DIN_
  6
Continuous
 62
     7
100
AcDbLine
 10
57.22267636356372
 20
63.82145340100149
 30
0.0
 11
57.22267636356372
 21
97.6048160984108
 31
0.0
  0
LINE
  5
4BA
330
1F
100
AcDbEntity
  8
Sichtbare_Kanten_TC_020513_DIN_
  6
Continuous
 62
     7
100
AcDbLine
 10
127.222676363564
 20
99.00481609841077
 30
0.0
 11
127.222676363564
 21
112.8214534010018
 31
0.0
  0
LINE
  5
4BB
330
1F
100
AcDbEntity
  8
Sichtbare_Kanten_TC_020513_DIN_
  6
Continuous
 62
     7
100
AcDbLine
 10
127.222676363564
 20
63.82145340100149
 30
0.0
 11
127.222676363564
 21
97.6048160984108
 31
0.0
  0
LINE
  5
4BC
330
1F
100
AcDbEntity
  8
Sichtbare_Kanten_TC_020513_DIN_
  6
Continuous
 62
     7
100
AcDbLine
 10
121.222676363564
 20
112.8214534010018
 30
0.0
 11
127.222676363564
 21
112.8214534010018
 31
0.0
  0
LINE
  5
4BD
330
1F
100
AcDbEntity
  8
Sichtbare_Kanten_TC_020513_DIN_
  6
Continuous
 62
     7
100
AcDbLine
 10
57.22267636356372
 20
112.8214534010018
 30
0.0
 11
63.22267636356372
 21
112.8214534010018
 31
0.0
  0
LINE
  5
4BE
330
1F
100
AcDbEntity
  8
Sichtbare_Kanten_TC_020513_DIN_
  6
Continuous
 62
     7
100
AcDbLine
 10
68.06309987656044
 20
112.8214534010018
 30
0.0
 11
63.22267636356372
 21
112.8214534010018
 31
0.0
  0
LINE
  5
4BF
330
1F
100
AcDbEntity
  8
Sichtbare_Kanten_TC_020513_DIN_
  6
Continuous
 62
     7
100
AcDbLine
 10
121.222676363564
 20
112.8214534010018
 30
0.0
 11
116.382252850567
 21
112.8214534010018
 31
0.0
  0
LINE
  5
4C0
330
1F
100
AcDbEntity
  8
Sichtbare_Kanten_TC_020513_DIN_
  6
Continuous
 62
     7
100
AcDbLine
 10
57.22267636356372
 20
88.73145340100149
 30
0.0
 11
45.47267636356372
 21
88.73145340100149
 31
0.0
  0
LINE
  5
4C1
330
1F
100
AcDbEntity
  8
Sichtbare_Kanten_TC_020513_DIN_
  6
Continuous
 62
     7
100
AcDbLine
 10
45.47267636356372
 20
76.40145340100148
 30
0.0
 11
45.47267636356372
 21
88.73145340100149
 31
0.0
  0
LINE
  5
4C2
330
1F
100
AcDbEntity
  8
Sichtbare_Kanten_TC_020513_DIN_
  6
Continuous
 62
     7
100
AcDbLine
 10
45.47267636356372
 20
76.40145340100148
 30
0.0
 11
45.47267636356372
 21
63.82145340100149
 31
0.0
  0
LINE
  5
4C3
330
1F
100
AcDbEntity
  8
Sichtbare_Kanten_TC_020513_DIN_
  6
Continuous
 62
     7
100
AcDbLine
 10
138.9726763635641
 20
59.82145340100149
 30
0.0
 11
138.9726763635641
 21
63.82145340100149
 31
0.0
  0
LINE
  5
4C4
330
1F
100
AcDbEntity
  8
Sichtbare_Kanten_TC_020513_DIN_
  6
Continuous
 62
     7
100
AcDbLine
 10
138.9726763635641
 20
59.82145340100149
 30
0.0
 11
129.9726763635641
 21
59.82145340100149
 31
0.0
  0
LINE
  5
4C5
330
1F
100
AcDbEntity
  8
Sichtbare_Kanten_TC_020513_DIN_
  6
Continuous
 62
     7
100
AcDbLine
 10
138.9726763635641
 20
63.82145340100149
 30
0.0
 11
129.9726763635641
 21
63.82145340100149
 31
0.0
  0
LINE
  5
4C6
330
1F
100
AcDbEntity
  8
Sichtbare_Kanten_TC_020513_DIN_
  6
Continuous
 62
     7
100
AcDbLine
 10
129.9726763635641
 20
59.82145340100149
 30
0.0
 11
129.9726763635641
 21
63.82145340100149
 31
0.0
  0
LINE
  5
4C7
330
1F
100
AcDbEntity
  8
Sichtbare_Kanten_TC_020513_DIN_
  6
Continuous
 62
     7
100
AcDbLine
 10
129.9726763635641
 20
59.82145340100149
 30
0.0
 11
119.972676363564
 21
59.82145340100149
 31
0.0
  0
LINE
  5
4C8
330
1F
100
AcDbEntity
  8
Sichtbare_Kanten_TC_020513_DIN_
  6
Continuous
 62
     7
100
AcDbLine
 10
129.9726763635641
 20
63.82145340100149
 30
0.0
 11
119.972676363564
 21
63.82145340100149
 31
0.0
  0
LINE
  5
4C9
330
1F
100
AcDbEntity
  8
Sichtbare_Kanten_TC_020513_DIN_
  6
Continuous
 62
     7
100
AcDbLine
 10
119.972676363564
 20
59.82145340100149
 30
0.0
 11
119.972676363564
 21
63.82145340100149
 31
0.0
  0
LINE
  5
4CA
330
1F
100
AcDbEntity
  8
Sichtbare_Kanten_TC_020513_DIN_
  6
Continuous
 62
     7
100
AcDbLine
 10
119.972676363564
 20
59.82145340100149
 30
0.0
 11
64.47267636356372
 21
59.82145340100149
 31
0.0
  0
LINE
  5
4CB
330
1F
100
AcDbEntity
  8
Sichtbare_Kanten_TC_020513_DIN_
  6
Continuous
 62
     7
100
AcDbLine
 10
64.47267636356372
 20
59.82145340100149
 30
0.0
 11
64.47267636356372
 21
63.82145340100149
 31
0.0
  0
LINE
  5
4CC
330
1F
100
AcDbEntity
  8
Sichtbare_Kanten_TC_020513_DIN_
  6
Continuous
 62
     7
100
AcDbLine
 10
64.47267636356372
 20
59.82145340100149
 30
0.0
 11
54.47267636356372
 21
59.82145340100149
 31
0.0
  0
LINE
  5
4CD
330
1F
100
AcDbEntity
  8
Sichtbare_Kanten_TC_020513_DIN_
  6
Continuous
 62
     7
100
AcDbLine
 10
64.47267636356372
 20
63.82145340100149
 30
0.0
 11
54.47267636356372
 21
63.82145340100149
 31
0.0
  0
LINE
  5
4CE
330
1F
100
AcDbEntity
  8
Sichtbare_Kanten_TC_020513_DIN_
  6
Continuous
 62
     7
100
AcDbLine
 10
54.47267636356372
 20
59.82145340100149
 30
0.0
 11
54.47267636356372
 21
63.82145340100149
 31
0.0
  0
LINE
  5
4CF
330
1F
100
AcDbEntity
  8
Sichtbare_Kanten_TC_020513_DIN_
  6
Continuous
 62
     7
100
AcDbLine
 10
54.47267636356372
 20
59.82145340100149
 30
0.0
 11
45.47267636356372
 21
59.82145340100149
 31
0.0
  0
LINE
  5
4D0
330
1F
100
AcDbEntity
  8
Sichtbare_Kanten_TC_020513_DIN_
  6
Continuous
 62
     7
100
AcDbLine
 10
54.47267636356372
 20
63.82145340100149
 30
0.0
 11
45.47267636356372
 21
63.82145340100149
 31
0.0
  0
LINE
  5
4D1
330
1F
100
AcDbEntity
  8
Sichtbare_Kanten_TC_020513_DIN_
  6
Continuous
 62
     7
100
AcDbLine
 10
45.47267636356372
 20
59.82145340100149
 30
0.0
 11
45.47267636356372
 21
63.82145340100149
 31
0.0
  0
LINE
  5
4D2
330
1F
100
AcDbEntity
  8
Sichtbare_Kanten_TC_020513_DIN_
  6
Continuous
 62
     7
100
AcDbLine
 10
130.572676363564
 20
95.08751297639549
 30
0.0
 11
131.9726763635641
 21
95.08751297639549
 31
0.0
  0
LINE
  5
4D3
330
1F
100
AcDbEntity
  8
Sichtbare_Kanten_TC_020513_DIN_
  6
Continuous
 62
     7
100
AcDbLine
 10
130.572676363564
 20
116.8214534010018
 30
0.0
 11
131.9726763635641
 21
116.8214534010018
 31
0.0
  0
LINE
  5
4D4
330
1F
100
AcDbEntity
  8
Sichtbare_Kanten_TC_020513_DIN_
  6
Continuous
 62
     7
100
AcDbLine
 10
119.256039060973
 20
96.66716118340278
 30
0.0
 11
102.506039060973
 21
96.66716118340278
 31
0.0
  0
LINE
  5
4D5
330
1F
100
AcDbEntity
  8
Sichtbare_Kanten_TC_020513_DIN_
  6
Continuous
 62
     7
100
AcDbLine
 10
102.006039060973
 20
97.16716118340278
 30
0.0
 11
102.006039060973
 21
97.50481609841077
 31
0.0
  0
LINE
  5
4D6
330
1F
100
AcDbEntity
  8
Sichtbare_Kanten_TC_020513_DIN_
  6
Continuous
 62
     7
100
AcDbLine
 10
131.9726763635641
 20
100.4048160984108
 30
0.0
 11
131.9726763635641
 21
95.08751297639549
 31
0.0
  0
LINE
  5
4D7
330
1F
100
AcDbEntity
  8
Sichtbare_Kanten_TC_020513_DIN_
  6
Continuous
 62
     7
100
AcDbLine
 10
130.572676363564
 20
97.9799449678138
 30
0.0
 11
130.572676363564
 21
95.08751297639549
 31
0.0
  0
LINE
  5
4D8
330
1F
100
AcDbEntity
  8
Sichtbare_Kanten_TC_020513_DIN_
  6
Continuous
 62
     7
100
AcDbLine
 10
131.9726763635641
 20
110.8214534010018
 30
0.0
 11
131.9726763635641
 21
102.8214534010018
 31
0.0
  0
LINE
  5
4D9
330
1F
100
AcDbEntity
  8
Sichtbare_Kanten_TC_020513_DIN_
  6
Continuous
 62
     7
100
AcDbLine
 10
130.572676363564
 20
110.8214534010018
 30
0.0
 11
130.572676363564
 21
102.8214534010018
 31
0.0
  0
LINE
  5
4DA
330
1F
100
AcDbEntity
  8
Sichtbare_Kanten_TC_020513_DIN_
  6
Continuous
 62
     7
100
AcDbLine
 10
131.9726763635641
 20
110.8214534010018
 30
0.0
 11
130.572676363564
 21
110.8214534010018
 31
0.0
  0
LINE
  5
4DB
330
1F
100
AcDbEntity
  8
Sichtbare_Kanten_TC_020513_DIN_
  6
Continuous
 62
     7
100
AcDbLine
 10
131.9726763635641
 20
110.8214534010018
 30
0.0
 11
131.9726763635641
 21
110.9998656509088
 31
0.0
  0
LINE
  5
4DC
330
1F
100
AcDbEntity
  8
Sichtbare_Kanten_TC_020513_DIN_
  6
Continuous
 62
     7
100
AcDbLine
 10
130.572676363564
 20
110.8214534010018
 30
0.0
 11
130.572676363564
 21
110.9998656509088
 31
0.0
  0
LINE
  5
4DD
330
1F
100
AcDbEntity
  8
Sichtbare_Kanten_TC_020513_DIN_
  6
Continuous
 62
     7
100
AcDbLine
 10
131.9726763635641
 20
116.1134291145808
 30
0.0
 11
131.9726763635641
 21
110.9998656509088
 31
0.0
  0
LINE
  5
4DE
330
1F
100
AcDbEntity
  8
Sichtbare_Kanten_TC_020513_DIN_
  6
Continuous
 62
     7
100
AcDbLine
 10
130.572676363564
 20
116.1134291145808
 30
0.0
 11
130.572676363564
 21
110.9998656509088
 31
0.0
  0
LINE
  5
4DF
330
1F
100
AcDbEntity
  8
Sichtbare_Kanten_TC_020513_DIN_
  6
Continuous
 62
     7
100
AcDbLine
 10
131.9726763635641
 20
116.8214534010018
 30
0.0
 11
131.9726763635641
 21
116.1134291145808
 31
0.0
  0
LINE
  5
4E0
330
1F
100
AcDbEntity
  8
Sichtbare_Kanten_TC_020513_DIN_
  6
Continuous
 62
     7
100
AcDbLine
 10
130.572676363564
 20
116.8214534010018
 30
0.0
 11
130.572676363564
 21
116.1134291145808
 31
0.0
  0
LINE
  5
4E1
330
1F
100
AcDbEntity
  8
Sichtbare_Kanten_TC_020513_DIN_
  6
Continuous
 62
     7
100
AcDbLine
 10
130.572676363564
 20
100.4048160984108
 30
0.0
 11
130.572676363564
 21
102.8214534010018
 31
0.0
  0
LINE
  5
4E2
330
1F
100
AcDbEntity
  8
Sichtbare_Kanten_TC_020513_DIN_
  6
Continuous
 62
     7
100
AcDbLine
 10
131.9726763635641
 20
100.4048160984108
 30
0.0
 11
131.9726763635641
 21
102.8214534010018
 31
0.0
  0
LINE
  5
4E3
330
1F
100
AcDbEntity
  8
Sichtbare_Kanten_TC_020513_DIN_
  6
Continuous
 62
     7
100
AcDbLine
 10
119.256039060973
 20
97.50481609841077
 30
0.0
 11
119.256039060973
 21
96.66716118340278
 31
0.0
  0
LINE
  5
4E4
330
1F
100
AcDbEntity
  8
Sichtbare_Kanten_TC_020513_DIN_
  6
Continuous
 62
     7
100
AcDbLine
 10
124.4644942360411
 20
97.6048160984108
 30
0.0
 11
118.132135636585
 21
97.6048160984108
 31
0.0
  0
LINE
  5
4E5
330
1F
100
AcDbEntity
  8
Sichtbare_Kanten_TC_020513_DIN_
  6
Continuous
 62
     7
100
AcDbLine
 10
124.4644942360411
 20
97.6048160984108
 30
0.0
 11
125.256039060973
 21
97.6048160984108
 31
0.0
  0
LINE
  5
4E6
330
1F
100
AcDbEntity
  8
Sichtbare_Kanten_TC_020513_DIN_
  6
Continuous
 62
     7
100
AcDbLine
 10
125.256039060973
 20
97.6048160984108
 30
0.0
 11
129.172676363564
 21
97.6048160984108
 31
0.0
  0
LINE
  5
4E7
330
1F
100
AcDbEntity
  8
Sichtbare_Kanten_TC_020513_DIN_
  6
Continuous
 62
     7
100
AcDbLine
 10
125.256039060973
 20
99.00481609841077
 30
0.0
 11
129.172676363564
 21
99.00481609841077
 31
0.0
  0
LINE
  5
4E8
330
1F
100
AcDbEntity
  8
Sichtbare_Kanten_TC_020513_DIN_
  6
Continuous
 62
     7
100
AcDbLine
 10
124.4644942360411
 20
99.00481609841077
 30
0.0
 11
125.256039060973
 21
99.00481609841077
 31
0.0
  0
LINE
  5
4E9
330
1F
100
AcDbEntity
  8
Sichtbare_Kanten_TC_020513_DIN_
  6
Continuous
 62
     7
100
AcDbLine
 10
124.4644942360411
 20
99.00481609841077
 30
0.0
 11
118.132135636585
 21
99.00481609841077
 31
0.0
  0
LINE
  5
4EA
330
1F
100
AcDbEntity
  8
Sichtbare_Kanten_TC_020513_DIN_
  6
Continuous
 62
     7
100
AcDbLine
 10
102.006039060973
 20
97.58468196419679
 30
0.0
 11
102.006039060973
 21
97.50481609841077
 31
0.0
  0
LINE
  5
4EB
330
1F
100
AcDbEntity
  8
Sichtbare_Kanten_TC_020513_DIN_
  6
Continuous
 62
     7
100
AcDbLine
 10
119.256039060973
 20
97.50481609841077
 30
0.0
 11
119.256039060973
 21
97.6048160984108
 31
0.0
  0
LINE
  5
4EC
330
1F
100
AcDbEntity
  8
Sichtbare_Kanten_TC_020513_DIN_
  6
Continuous
 62
     7
100
AcDbLine
 10
82.43931366615442
 20
97.50481609841077
 30
0.0
 11
82.43931366615442
 21
97.58468196419679
 31
0.0
  0
LINE
  5
4ED
330
1F
100
AcDbEntity
  8
Sichtbare_Kanten_TC_020513_DIN_
  6
Continuous
 62
     7
100
AcDbLine
 10
65.18931366615442
 20
97.6048160984108
 30
0.0
 11
65.18931366615453
 21
97.50481609841077
 31
0.0
  0
LINE
  5
4EE
330
1F
100
AcDbEntity
  8
Sichtbare_Kanten_TC_020513_DIN_
  6
Continuous
 62
     7
100
AcDbLine
 10
52.47267636356372
 20
95.08751297639549
 30
0.0
 11
53.8726763635637
 21
95.08751297639549
 31
0.0
  0
LINE
  5
4EF
330
1F
100
AcDbEntity
  8
Sichtbare_Kanten_TC_020513_DIN_
  6
Continuous
 62
     7
100
AcDbLine
 10
52.47267636356372
 20
116.8214534010018
 30
0.0
 11
53.8726763635637
 21
116.8214534010018
 31
0.0
  0
LINE
  5
4F0
330
1F
100
AcDbEntity
  8
Sichtbare_Kanten_TC_020513_DIN_
  6
Continuous
 62
     7
100
AcDbLine
 10
118.132135636585
 20
97.6048160984108
 30
0.0
 11
66.31321709054191
 21
97.6048160984108
 31
0.0
  0
LINE
  5
4F1
330
1F
100
AcDbEntity
  8
Sichtbare_Kanten_TC_020513_DIN_
  6
Continuous
 62
     7
100
AcDbLine
 10
82.43931366615442
 20
97.16716118340378
 30
0.0
 11
82.43931366615442
 21
97.50481609841077
 31
0.0
  0
LINE
  5
4F2
330
1F
100
AcDbEntity
  8
Sichtbare_Kanten_TC_020513_DIN_
  6
Continuous
 62
     7
100
AcDbLine
 10
65.18931366615442
 20
96.66716118340378
 30
0.0
 11
81.93931366615453
 21
96.66716118340378
 31
0.0
  0
LINE
  5
4F3
330
1F
100
AcDbEntity
  8
Sichtbare_Kanten_TC_020513_DIN_
  6
Continuous
 62
     7
100
AcDbLine
 10
118.132135636585
 20
99.00481609841077
 30
0.0
 11
66.31321709054191
 21
99.00481609841077
 31
0.0
  0
LINE
  5
4F4
330
1F
100
AcDbEntity
  8
Sichtbare_Kanten_TC_020513_DIN_
  6
Continuous
 62
     7
100
AcDbLine
 10
65.18931366615453
 20
97.50481609841077
 30
0.0
 11
65.18931366615442
 21
96.66716118340378
 31
0.0
  0
LINE
  5
4F5
330
1F
100
AcDbEntity
  8
Sichtbare_Kanten_TC_020513_DIN_
  6
Continuous
 62
     7
100
AcDbLine
 10
52.47267636356372
 20
100.4048160984108
 30
0.0
 11
52.47267636356372
 21
95.08751297639549
 31
0.0
  0
LINE
  5
4F6
330
1F
100
AcDbEntity
  8
Sichtbare_Kanten_TC_020513_DIN_
  6
Continuous
 62
     7
100
AcDbLine
 10
53.8726763635637
 20
97.9799449678138
 30
0.0
 11
53.8726763635637
 21
95.08751297639549
 31
0.0
  0
LINE
  5
4F7
330
1F
100
AcDbEntity
  8
Sichtbare_Kanten_TC_020513_DIN_
  6
Continuous
 62
     7
100
AcDbLine
 10
52.47267636356372
 20
110.8214534010018
 30
0.0
 11
52.47267636356372
 21
102.8214534010018
 31
0.0
  0
LINE
  5
4F8
330
1F
100
AcDbEntity
  8
Sichtbare_Kanten_TC_020513_DIN_
  6
Continuous
 62
     7
100
AcDbLine
 10
53.8726763635637
 20
110.8214534010018
 30
0.0
 11
53.8726763635637
 21
102.8214534010018
 31
0.0
  0
LINE
  5
4F9
330
1F
100
AcDbEntity
  8
Sichtbare_Kanten_TC_020513_DIN_
  6
Continuous
 62
     7
100
AcDbLine
 10
52.47267636356372
 20
110.8214534010018
 30
0.0
 11
53.8726763635637
 21
110.8214534010018
 31
0.0
  0
LINE
  5
4FA
330
1F
100
AcDbEntity
  8
Sichtbare_Kanten_TC_020513_DIN_
  6
Continuous
 62
     7
100
AcDbLine
 10
52.47267636356372
 20
110.8214534010018
 30
0.0
 11
52.47267636356372
 21
110.9998656509088
 31
0.0
  0
LINE
  5
4FB
330
1F
100
AcDbEntity
  8
Sichtbare_Kanten_TC_020513_DIN_
  6
Continuous
 62
     7
100
AcDbLine
 10
53.8726763635637
 20
110.8214534010018
 30
0.0
 11
53.8726763635637
 21
110.9998656509088
 31
0.0
  0
LINE
  5
4FC
330
1F
100
AcDbEntity
  8
Sichtbare_Kanten_TC_020513_DIN_
  6
Continuous
 62
     7
100
AcDbLine
 10
52.47267636356372
 20
116.1134291145808
 30
0.0
 11
52.47267636356372
 21
110.9998656509088
 31
0.0
  0
LINE
  5
4FD
330
1F
100
AcDbEntity
  8
Sichtbare_Kanten_TC_020513_DIN_
  6
Continuous
 62
     7
100
AcDbLine
 10
53.8726763635637
 20
116.1134291145808
 30
0.0
 11
53.8726763635637
 21
110.9998656509088
 31
0.0
  0
LINE
  5
4FE
330
1F
100
AcDbEntity
  8
Sichtbare_Kanten_TC_020513_DIN_
  6
Continuous
 62
     7
100
AcDbLine
 10
52.47267636356372
 20
116.8214534010018
 30
0.0
 11
52.47267636356372
 21
116.1134291145808
 31
0.0
  0
LINE
  5
4FF
330
1F
100
AcDbEntity
  8
Sichtbare_Kanten_TC_020513_DIN_
  6
Continuous
 62
     7
100
AcDbLine
 10
53.8726763635637
 20
116.8214534010018
 30
0.0
 11
53.8726763635637
 21
116.1134291145808
 31
0.0
  0
LINE
  5
500
330
1F
100
AcDbEntity
  8
Sichtbare_Kanten_TC_020513_DIN_
  6
Continuous
 62
     7
100
AcDbLine
 10
52.47267636356372
 20
100.4048160984108
 30
0.0
 11
52.47267636356372
 21
102.8214534010018
 31
0.0
  0
LINE
  5
501
330
1F
100
AcDbEntity
  8
Sichtbare_Kanten_TC_020513_DIN_
  6
Continuous
 62
     7
100
AcDbLine
 10
53.8726763635637
 20
100.4048160984108
 30
0.0
 11
53.8726763635637
 21
102.8214534010018
 31
0.0
  0
LINE
  5
502
330
1F
100
AcDbEntity
  8
Sichtbare_Kanten_TC_020513_DIN_
  6
Continuous
 62
     7
100
AcDbLine
 10
59.18931366615442
 20
99.00481609841077
 30
0.0
 11
55.27267636356373
 21
99.00481609841077
 31
0.0
  0
LINE
  5
503
330
1F
100
AcDbEntity
  8
Sichtbare_Kanten_TC_020513_DIN_
  6
Continuous
 62
     7
100
AcDbLine
 10
59.18931366615442
 20
97.6048160984108
 30
0.0
 11
55.27267636356373
 21
97.6048160984108
 31
0.0
  0
LINE
  5
504
330
1F
100
AcDbEntity
  8
Sichtbare_Kanten_TC_020513_DIN_
  6
Continuous
 62
     7
100
AcDbLine
 10
59.98085849108639
 20
97.6048160984108
 30
0.0
 11
59.18931366615442
 21
97.6048160984108
 31
0.0
  0
LINE
  5
505
330
1F
100
AcDbEntity
  8
Sichtbare_Kanten_TC_020513_DIN_
  6
Continuous
 62
     7
100
AcDbLine
 10
59.98085849108639
 20
99.00481609841077
 30
0.0
 11
59.18931366615442
 21
99.00481609841077
 31
0.0
  0
LINE
  5
506
330
1F
100
AcDbEntity
  8
Sichtbare_Kanten_TC_020513_DIN_
  6
Continuous
 62
     7
100
AcDbLine
 10
59.98085849108639
 20
97.6048160984108
 30
0.0
 11
66.31321709054191
 21
97.6048160984108
 31
0.0
  0
LINE
  5
507
330
1F
100
AcDbEntity
  8
Sichtbare_Kanten_TC_020513_DIN_
  6
Continuous
 62
     7
100
AcDbLine
 10
59.98085849108639
 20
99.00481609841077
 30
0.0
 11
66.31321709054191
 21
99.00481609841077
 31
0.0
  0
ARC
  5
508
330
1F
100
AcDbEntity
  8
Stich_1-Linien_TC_020513_DIN_
  6
DASHED_SPACE
 62
     7
100
AcDbCircle
 10
206.916930051136
 20
98.82145340100178
 30
0.0
 40
48.93394997172109
100
AcDbArc
 50
0.0
 51
49.67026438225055
  0
ARC
  5
509
330
1F
100
AcDbEntity
  8
Sichtbare_Kanten_TC_020513_DIN_
  6
Continuous
 62
     7
100
AcDbCircle
 10
169.166930051145
 20
116.8214534010018
 30
0.0
 40
0.9999999999998694
100
AcDbArc
 50
194.2932903099152
 51
270.0
  0
ARC
  5
50A
330
1F
100
AcDbEntity
  8
Sichtbare_Kanten_TC_020513_DIN_
  6
Continuous
 62
     7
100
AcDbCircle
 10
177.666930051145
 20
124.1251803251808
 30
0.0
 40
0.5
100
AcDbArc
 50
0.0
 51
82.9999999999535
  0
ARC
  5
50B
330
1F
100
AcDbEntity
  8
Sichtbare_Kanten_TC_020513_DIN_
  6
Continuous
 62
     7
100
AcDbCircle
 10
163.666930051139
 20
137.3214534010018
 30
0.0
 40
1.0
100
AcDbArc
 50
180.0
 51
270.0
  0
ARC
  5
50C
330
1F
100
AcDbEntity
  8
Sichtbare_Kanten_TC_020513_DIN_
  6
Continuous
 62
     7
100
AcDbCircle
 10
163.666930051139
 20
175.3214534010018
 30
0.0
 40
1.0
100
AcDbArc
 50
90.0
 51
180.0
  0
ARC
  5
50D
330
1F
100
AcDbEntity
  8
Sichtbare_Kanten_TC_020513_DIN_
  6
Continuous
 62
     7
100
AcDbCircle
 10
214.734892346009
 20
121.3214534010018
 30
0.0
 40
0.5000000000004349
100
AcDbArc
 50
325.2685345842177
 51
20.26853458426821
  0
ARC
  5
50E
330
1F
100
AcDbEntity
  8
Sichtbare_Kanten_TC_020513_DIN_
  6
Continuous
 62
     7
100
AcDbCircle
 10
209.9169300511371
 20
122.8214534010018
 30
0.0
 40
4.499999999999809
100
AcDbArc
 50
20.26853458426768
 51
118.9550243718645
  0
ARC
  5
50F
330
1F
100
AcDbEntity
  8
Sichtbare_Kanten_TC_020513_DIN_
  6
Continuous
 62
     7
100
AcDbCircle
 10
205.656648370308
 20
130.5214534010018
 30
0.0
 40
4.300000000000011
100
AcDbArc
 50
90.0
 51
298.9550243718659
  0
ARC
  5
510
330
1F
100
AcDbEntity
  8
Sichtbare_Kanten_TC_020513_DIN_
  6
Continuous
 62
     7
100
AcDbCircle
 10
213.656648370308
 20
99.82145340100178
 30
0.0
 40
35.00000000000038
100
AcDbArc
 50
58.50330715785258
 51
90.0
  0
ARC
  5
511
330
1F
100
AcDbEntity
  8
Sichtbare_Kanten_TC_020513_DIN_
  6
Continuous
 62
     7
100
AcDbCircle
 10
233.9169300511371
 20
118.1824387359968
 30
0.0
 40
1.000000000000798
100
AcDbArc
 50
218.3440606646548
 51
270.0
  0
ARC
  5
512
330
1F
100
AcDbEntity
  8
Sichtbare_Kanten_TC_020513_DIN_
  6
Continuous
 62
     7
100
AcDbCircle
 10
229.9169300511371
 20
120.8214534010018
 30
0.0
 40
0.4999999999989705
100
AcDbArc
 50
38.34406066463686
 51
128.3440606646668
  0
ARC
  5
513
330
1F
100
AcDbEntity
  8
Sichtbare_Kanten_TC_020513_DIN_
  6
Continuous
 62
     7
100
AcDbCircle
 10
219.8031731619021
 20
112.8214534010018
 30
0.0
 40
0.4999999999996358
100
AcDbArc
 50
128.3440606647385
 51
175.0000000000971
  0
ARC
  5
514
330
1F
100
AcDbEntity
  8
Sichtbare_Kanten_TC_020513_DIN_
  6
Continuous
 62
     7
100
AcDbCircle
 10
171.166930051143
 20
121.8214534010018
 30
0.0
 40
1.0
100
AcDbArc
 50
90.0
 51
180.0
  0
ARC
  5
515
330
1F
100
AcDbEntity
  8
Sichtbare_Kanten_TC_020513_DIN_
  6
Continuous
 62
     7
100
AcDbCircle
 10
171.166930051143
 20
92.32145340100149
 30
0.0
 40
1.0
100
AcDbArc
 50
180.0
 51
270.0
  0
ARC
  5
516
330
1F
100
AcDbEntity
  8
Sichtbare_Kanten_TC_020513_DIN_
  6
Continuous
 62
     7
100
AcDbCircle
 10
209.916930051134
 20
76.40145340100148
 30
0.0
 40
12.33000000000001
100
AcDbArc
 50
0.0
 51
180.0
  0
ARC
  5
517
330
1F
100
AcDbEntity
  8
Sichtbare_Kanten_TC_020513_DIN_
  6
Continuous
 62
     7
100
AcDbCircle
 10
233.6792751361321
 20
97.50481609841077
 30
0.0
 40
0.1000000000000227
100
AcDbArc
 50
90.0
 51
180.0
  0
ARC
  5
518
330
1F
100
AcDbEntity
  8
Sichtbare_Kanten_TC_020513_DIN_
  6
Continuous
 62
     7
100
AcDbCircle
 10
233.6792751361321
 20
97.50481609841077
 30
0.0
 40
1.5
100
AcDbArc
 50
90.0
 51
180.0
  0
ARC
  5
519
330
1F
100
AcDbEntity
  8
Sichtbare_Kanten_TC_020513_DIN_
  6
Continuous
 62
     7
100
AcDbCircle
 10
203.416930051136
 20
96.32145340100178
 30
0.0
 40
0.5
100
AcDbArc
 50
180.0
 51
251.6923269007843
  0
ARC
  5
51A
330
1F
100
AcDbEntity
  8
Sichtbare_Kanten_TC_020513_DIN_
  6
Continuous
 62
     7
100
AcDbCircle
 10
207.971664265852
 20
110.0875129763958
 30
0.0
 40
15.00000000000055
100
AcDbArc
 50
251.6923269007145
 51
334.1179484035668
  0
ARC
  5
51B
330
1F
100
AcDbEntity
  8
Sichtbare_Kanten_TC_020513_DIN_
  6
Continuous
 62
     7
100
AcDbCircle
 10
221.916930051136
 20
103.3214534010018
 30
0.0
 40
0.5
100
AcDbArc
 50
90.0
 51
154.1179484035571
  0
ARC
  5
51C
330
1F
100
AcDbEntity
  8
Sichtbare_Kanten_TC_020513_DIN_
  6
Continuous
 62
     7
100
AcDbCircle
 10
232.716930051136
 20
102.8214534010018
 30
0.0
 40
1.0
100
AcDbArc
 50
0.0
 51
90.0
  0
ARC
  5
51D
330
1F
100
AcDbEntity
  8
Sichtbare_Kanten_TC_020513_DIN_
  6
Continuous
 62
     7
100
AcDbCircle
 10
232.716930051136
 20
102.8214534010018
 30
0.0
 40
8.0
100
AcDbArc
 50
0.0
 51
90.0
  0
ARC
  5
51E
330
1F
100
AcDbEntity
  8
Sichtbare_Kanten_TC_020513_DIN_
  6
Continuous
 62
     7
100
AcDbCircle
 10
219.916930051136
 20
111.3214534010018
 30
0.0
 40
0.5000000000005766
100
AcDbArc
 50
220.0290181764832
 51
270.0
  0
ARC
  5
51F
330
1F
100
AcDbEntity
  8
Sichtbare_Kanten_TC_020513_DIN_
  6
Continuous
 62
     7
100
AcDbCircle
 10
204.219694714204
 20
98.13635564721179
 30
0.0
 40
20.00000000000005
100
AcDbArc
 50
40.02901817645228
 51
64.0077944362072
  0
ARC
  5
520
330
1F
100
AcDbEntity
  8
Sichtbare_Kanten_TC_020513_DIN_
  6
Continuous
 62
     7
100
AcDbCircle
 10
209.916930051136
 20
109.8214534010018
 30
0.0
 40
7.000000000000161
100
AcDbArc
 50
64.00779443620591
 51
180.0
  0
ARC
  5
521
330
1F
100
AcDbEntity
  8
Sichtbare_Kanten_TC_020513_DIN_
  6
Continuous
 62
     7
100
AcDbCircle
 10
122.722676363564
 20
173.3214534010018
 30
0.0
 40
6.000000000000085
100
AcDbArc
 50
0.0
 51
90.0
  0
ARC
  5
522
330
1F
100
AcDbEntity
  8
Sichtbare_Kanten_TC_020513_DIN_
  6
Continuous
 62
     7
100
AcDbCircle
 10
122.722676363564
 20
139.3214534010018
 30
0.0
 40
6.0
100
AcDbArc
 50
270.0
 51
0.0
  0
ARC
  5
523
330
1F
100
AcDbEntity
  8
Sichtbare_Kanten_TC_020513_DIN_
  6
Continuous
 62
     7
100
AcDbCircle
 10
61.72267636356372
 20
139.3214534010018
 30
0.0
 40
5.0
100
AcDbArc
 50
180.0
 51
270.0
  0
ARC
  5
524
330
1F
100
AcDbEntity
  8
Sichtbare_Kanten_TC_020513_DIN_
  6
Continuous
 62
     7
100
AcDbCircle
 10
61.72267636356372
 20
173.3214534010018
 30
0.0
 40
5.0
100
AcDbArc
 50
90.0
 51
180.0
  0
ARC
  5
525
330
1F
100
AcDbEntity
  8
Sichtbare_Kanten_TC_020513_DIN_
  6
Continuous
 62
     7
100
AcDbCircle
 10
61.72267636356372
 20
139.3214534010018
 30
0.0
 40
6.0
100
AcDbArc
 50
180.0
 51
270.0
  0
ARC
  5
526
330
1F
100
AcDbEntity
  8
Sichtbare_Kanten_TC_020513_DIN_
  6
Continuous
 62
     7
100
AcDbCircle
 10
61.72267636356372
 20
173.3214534010018
 30
0.0
 40
6.0
100
AcDbArc
 50
90.0
 51
180.0
  0
ARC
  5
527
330
1F
100
AcDbEntity
  8
Sichtbare_Kanten_TC_020513_DIN_
  6
Continuous
 62
     7
100
AcDbCircle
 10
122.722676363564
 20
139.3214534010018
 30
0.0
 40
5.0
100
AcDbArc
 50
270.0
 51
0.0
  0
ARC
  5
528
330
1F
100
AcDbEntity
  8
Sichtbare_Kanten_TC_020513_DIN_
  6
Continuous
 62
     7
100
AcDbCircle
 10
122.722676363564
 20
173.3214534010018
 30
0.0
 40
4.999999999999702
100
AcDbArc
 50
0.0
 51
90.0
  0
ARC
  5
529
330
1F
100
AcDbEntity
  8
Sichtbare_Kanten_TC_020513_DIN_
  6
Continuous
 62
     7
100
AcDbCircle
 10
122.722676363564
 20
173.3214534010018
 30
0.0
 40
1.0
100
AcDbArc
 50
0.0
 51
90.0
  0
ARC
  5
52A
330
1F
100
AcDbEntity
  8
Sichtbare_Kanten_TC_020513_DIN_
  6
Continuous
 62
     7
100
AcDbCircle
 10
61.72267636356372
 20
173.3214534010018
 30
0.0
 40
1.0
100
AcDbArc
 50
90.0
 51
180.0
  0
ARC
  5
52B
330
1F
100
AcDbEntity
  8
Sichtbare_Kanten_TC_020513_DIN_
  6
Continuous
 62
     7
100
AcDbCircle
 10
61.72267636356372
 20
139.3214534010018
 30
0.0
 40
1.0
100
AcDbArc
 50
180.0
 51
270.0
  0
ARC
  5
52C
330
1F
100
AcDbEntity
  8
Sichtbare_Kanten_TC_020513_DIN_
  6
Continuous
 62
     7
100
AcDbCircle
 10
122.722676363564
 20
139.3214534010018
 30
0.0
 40
1.0
100
AcDbArc
 50
270.0
 51
0.0
  0
ARC
  5
52D
330
1F
100
AcDbEntity
  8
Sichtbare_Kanten_TC_020513_DIN_
  6
Continuous
 62
     7
100
AcDbCircle
 10
130.072676363564
 20
99.68379848599378
 30
0.0
 40
1.5
100
AcDbArc
 50
180.0
 51
206.914149201854
  0
ARC
  5
52E
330
1F
100
AcDbEntity
  8
Sichtbare_Kanten_TC_020513_DIN_
  6
Continuous
 62
     7
100
AcDbCircle
 10
130.072676363564
 20
99.68379848599378
 30
0.0
 40
0.0999999999999091
100
AcDbArc
 50
180.0
 51
270.0
  0
ARC
  5
52F
330
1F
100
AcDbEntity
  8
Sichtbare_Kanten_TC_020513_DIN_
  6
Continuous
 62
     7
100
AcDbCircle
 10
54.3726763635637
 20
99.68379848599378
 30
0.0
 40
1.499999999999918
100
AcDbArc
 50
333.0858507981514
 51
0.0
  0
ARC
  5
530
330
1F
100
AcDbEntity
  8
Sichtbare_Kanten_TC_020513_DIN_
  6
Continuous
 62
     7
100
AcDbCircle
 10
54.3726763635637
 20
99.68379848599378
 30
0.0
 40
0.0999999999999943
100
AcDbArc
 50
270.0
 51
0.0
  0
ARC
  5
531
330
1F
100
AcDbEntity
  8
Sichtbare_Kanten_TC_020513_DIN_
  6
Continuous
 62
     7
100
AcDbCircle
 10
66.73931366615449
 20
116.9324387359968
 30
0.0
 40
0.249999999999897
100
AcDbArc
 50
14.9999999998558
 51
90.0
  0
ARC
  5
532
330
1F
100
AcDbEntity
  8
Sichtbare_Kanten_TC_020513_DIN_
  6
Continuous
 62
     7
100
AcDbCircle
 10
59.23931366615454
 20
126.1824387359968
 30
0.0
 40
0.9999999999995643
100
AcDbArc
 50
39.99999999998032
 51
90.0
  0
ARC
  5
533
330
1F
100
AcDbEntity
  8
Sichtbare_Kanten_TC_020513_DIN_
  6
Continuous
 62
     7
100
AcDbCircle
 10
61.85012824481902
 20
126.1824387359968
 30
0.0
 40
1.000000000000285
100
AcDbArc
 50
220.00000000002
 51
270.0
  0
ARC
  5
534
330
1F
100
AcDbEntity
  8
Sichtbare_Kanten_TC_020513_DIN_
  6
Continuous
 62
     7
100
AcDbCircle
 10
66.73931366615449
 20
126.6824387359968
 30
0.0
 40
1.5
100
AcDbArc
 50
270.0
 51
313.760121028998
  0
ARC
  5
535
330
1F
100
AcDbEntity
  8
Sichtbare_Kanten_TC_020513_DIN_
  6
Continuous
 62
     7
100
AcDbCircle
 10
117.706039060973
 20
126.6824387359968
 30
0.0
 40
1.500000000000725
100
AcDbArc
 50
226.2398789709946
 51
270.0
  0
ARC
  5
536
330
1F
100
AcDbEntity
  8
Sichtbare_Kanten_TC_020513_DIN_
  6
Continuous
 62
     7
100
AcDbCircle
 10
122.595224482308
 20
126.1824387359968
 30
0.0
 40
1.0
100
AcDbArc
 50
270.0
 51
319.9999999999847
  0
ARC
  5
537
330
1F
100
AcDbEntity
  8
Sichtbare_Kanten_TC_020513_DIN_
  6
Continuous
 62
     7
100
AcDbCircle
 10
125.206039060973
 20
126.1824387359968
 30
0.0
 40
1.0
100
AcDbArc
 50
90.0
 51
140.0000000000246
  0
ARC
  5
538
330
1F
100
AcDbEntity
  8
Sichtbare_Kanten_TC_020513_DIN_
  6
Continuous
 62
     7
100
AcDbCircle
 10
117.706039060973
 20
116.9324387359968
 30
0.0
 40
0.25
100
AcDbArc
 50
90.0
 51
165.0000000001248
  0
ARC
  5
539
330
1F
100
AcDbEntity
  8
Sichtbare_Kanten_TC_020513_DIN_
  6
Continuous
 62
     7
100
AcDbCircle
 10
91.22267636356372
 20
119.1969340367598
 30
0.0
 40
0.25
100
AcDbArc
 50
180.0
 51
0.0
  0
ARC
  5
53A
330
1F
100
AcDbEntity
  8
Sichtbare_Kanten_TC_020513_DIN_
  6
Continuous
 62
     7
100
AcDbCircle
 10
91.22267636356372
 20
122.6286650729358
 30
0.0
 40
0.2500000000002896
100
AcDbArc
 50
35.90957617711464
 51
180.0
  0
ARC
  5
53B
330
1F
100
AcDbEntity
  8
Sichtbare_Kanten_TC_020513_DIN_
  6
Continuous
 62
     7
100
AcDbCircle
 10
93.22267636356372
 20
118.0142417290668
 30
0.0
 40
0.25
100
AcDbArc
 50
180.0
 51
0.0
  0
ARC
  5
53C
330
1F
100
AcDbEntity
  8
Sichtbare_Kanten_TC_020513_DIN_
  6
Continuous
 62
     7
100
AcDbCircle
 10
93.22267636356372
 20
122.6286650729358
 30
0.0
 40
0.25
100
AcDbArc
 50
0.0
 51
144.0904238228777
  0
ARC
  5
53D
330
1F
100
AcDbEntity
  8
Sichtbare_Kanten_TC_020513_DIN_
  6
Continuous
 62
     7
100
AcDbCircle
 10
90.17267636356371
 20
122.0228958421668
 30
0.0
 40
0.25
100
AcDbArc
 50
0.0
 51
180.0
  0
ARC
  5
53E
330
1F
100
AcDbEntity
  8
Sichtbare_Kanten_TC_020513_DIN_
  6
Continuous
 62
     7
100
AcDbCircle
 10
90.17267636356371
 20
118.6200109598368
 30
0.0
 40
0.25
100
AcDbArc
 50
180.0
 51
240.018360631251
  0
ARC
  5
53F
330
1F
100
AcDbEntity
  8
Sichtbare_Kanten_TC_020513_DIN_
  6
Continuous
 62
     7
100
AcDbCircle
 10
92.22267636356372
 20
117.4373186521438
 30
0.0
 40
0.2499999999998662
100
AcDbArc
 50
240.0183606311355
 51
60.01836063113548
  0
ARC
  5
540
330
1F
100
AcDbEntity
  8
Sichtbare_Kanten_TC_020513_DIN_
  6
Continuous
 62
     7
100
AcDbCircle
 10
89.17267636356371
 20
121.4459727652438
 30
0.0
 40
0.25
100
AcDbArc
 50
0.0
 51
180.0
  0
ARC
  5
541
330
1F
100
AcDbEntity
  8
Sichtbare_Kanten_TC_020513_DIN_
  6
Continuous
 62
     7
100
AcDbCircle
 10
89.17267636356371
 20
119.1969340367598
 30
0.0
 40
0.25
100
AcDbArc
 50
180.0
 51
0.0
  0
ARC
  5
542
330
1F
100
AcDbEntity
  8
Sichtbare_Kanten_TC_020513_DIN_
  6
Continuous
 62
     7
100
AcDbCircle
 10
94.22267636356372
 20
122.0517419960128
 30
0.0
 40
0.2499999999998662
100
AcDbArc
 50
60.01836063113548
 51
180.0
  0
ARC
  5
543
330
1F
100
AcDbEntity
  8
Sichtbare_Kanten_TC_020513_DIN_
  6
Continuous
 62
     7
100
AcDbCircle
 10
95.22267636356372
 20
121.4748189190898
 30
0.0
 40
0.2499999999998662
100
AcDbArc
 50
240.0183606311355
 51
60.01836063113548
  0
ARC
  5
544
330
1F
100
AcDbEntity
  8
Sichtbare_Kanten_TC_020513_DIN_
  6
Continuous
 62
     7
100
AcDbCircle
 10
94.22267636356372
 20
118.5911648059898
 30
0.0
 40
0.25
100
AcDbArc
 50
180.0
 51
299.9816393688645
  0
ARC
  5
545
330
1F
100
AcDbEntity
  8
Sichtbare_Kanten_TC_020513_DIN_
  6
Continuous
 62
     7
100
AcDbCircle
 10
95.22267636356372
 20
119.1680878829128
 30
0.0
 40
0.2499999999998662
100
AcDbArc
 50
299.9816393688645
 51
119.9816393687506
  0
ARC
  5
546
330
1F
100
AcDbEntity
  8
Sichtbare_Kanten_TC_020513_DIN_
  6
Continuous
 62
     7
100
AcDbCircle
 10
95.22267636356372
 20
120.3214534010018
 30
0.0
 40
0.25
100
AcDbArc
 50
270.0
 51
90.0
  0
ARC
  5
547
330
1F
100
AcDbEntity
  8
Sichtbare_Kanten_TC_020513_DIN_
  6
Continuous
 62
     7
100
AcDbCircle
 10
51.17267636356371
 20
105.8214534010018
 30
0.0
 40
0.6999999999999886
100
AcDbArc
 50
180.0
 51
0.0
  0
ARC
  5
548
330
1F
100
AcDbEntity
  8
Sichtbare_Kanten_TC_020513_DIN_
  6
Continuous
 62
     7
100
AcDbCircle
 10
51.17267636356371
 20
113.8214534010018
 30
0.0
 40
0.6999999999999886
100
AcDbArc
 50
0.0
 51
180.0
  0
ARC
  5
549
330
1F
100
AcDbEntity
  8
Sichtbare_Kanten_TC_020513_DIN_
  6
Continuous
 62
     7
100
AcDbCircle
 10
133.272676363564
 20
113.8214534010018
 30
0.0
 40
0.7000000000001023
100
AcDbArc
 50
0.0
 51
180.0
  0
ARC
  5
54A
330
1F
100
AcDbEntity
  8
Sichtbare_Kanten_TC_020513_DIN_
  6
Continuous
 62
     7
100
AcDbCircle
 10
133.272676363564
 20
105.8214534010018
 30
0.0
 40
0.6999999999999886
100
AcDbArc
 50
180.0
 51
0.0
  0
ARC
  5
54B
330
1F
100
AcDbEntity
  8
Sichtbare_Kanten_TC_020513_DIN_
  6
Continuous
 62
     7
100
AcDbCircle
 10
129.172676363564
 20
100.4048160984108
 30
0.0
 40
1.400000000000034
100
AcDbArc
 50
270.0
 51
0.0
  0
ARC
  5
54C
330
1F
100
AcDbEntity
  8
Sichtbare_Kanten_TC_020513_DIN_
  6
Continuous
 62
     7
100
AcDbCircle
 10
129.172676363564
 20
100.4048160984108
 30
0.0
 40
2.800000000000011
100
AcDbArc
 50
270.0
 51
0.0
  0
ARC
  5
54D
330
1F
100
AcDbEntity
  8
Sichtbare_Kanten_TC_020513_DIN_
  6
Continuous
 62
     7
100
AcDbCircle
 10
102.506039060973
 20
97.16716118340278
 30
0.0
 40
0.5
100
AcDbArc
 50
180.0
 51
270.0
  0
ARC
  5
54E
330
1F
100
AcDbEntity
  8
Sichtbare_Kanten_TC_020513_DIN_
  6
Continuous
 62
     7
100
AcDbCircle
 10
55.27267636356373
 20
100.4048160984108
 30
0.0
 40
2.800000000000011
100
AcDbArc
 50
180.0
 51
270.0
  0
ARC
  5
54F
330
1F
100
AcDbEntity
  8
Sichtbare_Kanten_TC_020513_DIN_
  6
Continuous
 62
     7
100
AcDbCircle
 10
55.27267636356373
 20
100.4048160984108
 30
0.0
 40
1.400000000000034
100
AcDbArc
 50
180.0
 51
270.0
  0
ARC
  5
550
330
1F
100
AcDbEntity
  8
Sichtbare_Kanten_TC_020513_DIN_
  6
Continuous
 62
     7
100
AcDbCircle
 10
81.93931366615442
 20
97.16716118340378
 30
0.0
 40
0.5
100
AcDbArc
 50
270.000000000013
 51
0.0
  0
CIRCLE
  5
551
330
1F
100
AcDbEntity
  8
Sichtbare_Kanten_TC_020513_DIN_
  6
Continuous
 62
     7
100
AcDbCircle
 10
167.166930051135
 20
156.3214534010018
 30
0.0
 40
4.5
  0
CIRCLE
  5
552
330
1F
100
AcDbEntity
  8
Sichtbare_Kanten_TC_020513_DIN_
  6
Continuous
 62
     7
100
AcDbCircle
 10
209.916930051136
 20
109.8214534010018
 30
0.0
 40
4.699999999999989
  0
CIRCLE
  5
553
330
1F
100
AcDbEntity
  8
Sichtbare_Kanten_TC_020513_DIN_
  6
Continuous
 62
     7
100
AcDbCircle
 10
209.916930051134
 20
76.40145340100148
 30
0.0
 40
7.58000000000402
  0
CIRCLE
  5
554
330
1F
100
AcDbEntity
  8
Sichtbare_Kanten_TC_020513_DIN_
  6
Continuous
 62
     7
100
AcDbCircle
 10
209.916930051134
 20
76.40145340100148
 30
0.0
 40
10.58000000000001
  0
CIRCLE
  5
555
330
1F
100
AcDbEntity
  8
Sichtbare_Kanten_TC_020513_DIN_
  6
Continuous
 62
     7
100
AcDbCircle
 10
206.916930051136
 20
98.82145340100178
 30
0.0
 40
1.75
  0
SPLINE
  5
556
330
1F
100
AcDbEntity
  8
Sichtbare_Kanten_TC_020513_DIN_
  6
Continuous
 62
     7
100
AcDbSpline
210
0.0
220
0.0
230
1.0
 70
     8
 71
     3
 72
    19
 73
    15
 74
    13
 42
0.000000001
 43
0.0000000001
 44
0.00000001
 40
0.0
 40
0.0
 40
0.0
 40
0.0
 40
0.3221862205370328
 40
0.6443862618341878
 40
0.8094705328394199
 40
0.9745562229277982
 40
1.142463280811722
 40
1.310374909566955
 40
1.480895931773763
 40
1.651417687594067
 40
1.824033462668619
 40
1.996661195040668
 40
2.257865073019214
 40
2.518894987889101
 40
2.518894987889101
 40
2.518894987889101
 40
2.518894987889101
 10
69.21343966084021
 20
109.5222249708128
 30
0.0
 10
69.24965332371798
 20
109.4207906501743
 30
0.0
 10
69.32208221644103
 20
109.217917663139
 30
0.0
 10
69.47147386287449
 20
108.9902272196307
 30
0.0
 10
69.61182753971114
 20
108.8240509810719
 30
0.0
 10
69.7301747107665
 20
108.7072341462581
 30
0.0
 10
69.85882348055927
 20
108.6005001036088
 30
0.0
 10
69.99760349288692
 20
108.5040871166784
 30
0.0
 10
70.14473764584665
 20
108.4192279224242
 30
0.0
 10
70.29978805964062
 20
108.3461661199988
 30
0.0
 10
70.46094499769282
 20
108.2856642190286
 30
0.0
 10
70.65551857298202
 20
108.230408428421
 30
0.0
 10
70.88405884737026
 20
108.1876649363593
 30
0.0
 10
71.05823316438294
 20
108.1817201996489
 30
0.0
 10
71.14529131341845
 20
108.1787488287588
 30
0.0
 11
69.21343966084021
 21
109.5222249708128
 31
0.0
 11
69.33370407203648
 21
109.2233262700985
 31
0.0
 11
69.5069872248404
 21
108.9516908213812
 31
0.0
 11
69.61368143759246
 21
108.8257179600072
 31
0.0
 11
69.73107775104529
 21
108.7096516387213
 31
0.0
 11
69.86027063115264
 21
108.6024043540064
 31
0.0
 11
69.9981384407163
 21
108.5065566498206
 31
0.0
 11
70.14582569228502
 21
108.4213164306261
 31
0.0
 11
70.30005478993704
 21
108.348576793146
 31
0.0
 11
70.46166448115423
 21
108.2879260411385
 31
0.0
 11
70.6276532232134
 21
108.2405122067016
 31
0.0
 11
70.88471931031218
 21
108.1942035333562
 31
0.0
 11
71.14529131341845
 21
108.1787488287588
 31
0.0
  0
SPLINE
  5
557
330
1F
100
AcDbEntity
  8
Sichtbare_Kanten_TC_020513_DIN_
  6
Continuous
 62
     7
100
AcDbSpline
210
0.0
220
0.0
230
1.0
 70
     8
 71
     3
 72
    19
 73
    15
 74
    13
 42
0.000000001
 43
0.0000000001
 44
0.00000001
 40
0.0
 40
0.0
 40
0.0
 40
0.0
 40
0.322186220537038
 40
0.6443862618341856
 40
0.8094705328394177
 40
0.9745562229277759
 40
1.142463280811737
 40
1.310374909566954
 40
1.48089593177376
 40
1.651417687594051
 40
1.824033462668603
 40
1.996661195040669
 40
2.25786507301919
 40
2.518894987889025
 40
2.518894987889025
 40
2.518894987889025
 40
2.518894987889025
 10
69.21343966084021
 20
108.9305594043758
 30
0.0
 10
69.24965332371798
 20
108.8291250837373
 30
0.0
 10
69.32208221644109
 20
108.6262520967021
 30
0.0
 10
69.47147386287442
 20
108.3985616531936
 30
0.0
 10
69.61182753971116
 20
108.2323854146349
 30
0.0
 10
69.7301747107665
 20
108.1155685798211
 30
0.0
 10
69.85882348055925
 20
108.0088345371718
 30
0.0
 10
69.99760349288692
 20
107.9124215502413
 30
0.0
 10
70.14473764584669
 20
107.8275623559873
 30
0.0
 10
70.29978805964059
 20
107.7545005535618
 30
0.0
 10
70.46094499769282
 20
107.6939986525916
 30
0.0
 10
70.655518572982
 20
107.638742861984
 30
0.0
 10
70.88405884737027
 20
107.5959993699223
 30
0.0
 10
71.05823316438294
 20
107.5900546332126
 30
0.0
 10
71.14529131341845
 20
107.5870832623228
 30
0.0
 11
69.21343966084021
 21
108.9305594043758
 31
0.0
 11
69.3337040720365
 21
108.6316607036615
 31
0.0
 11
69.5069872248404
 21
108.3600252549442
 31
0.0
 11
69.61368143759246
 21
108.2340523935702
 31
0.0
 11
69.73107775104528
 21
108.1179860722843
 31
0.0
 11
69.86027063115264
 21
108.0107387875694
 31
0.0
 11
69.9981384407163
 21
107.9148910833836
 31
0.0
 11
70.14582569228503
 21
107.8296508641891
 31
0.0
 11
70.30005478993702
 21
107.756911226709
 31
0.0
 11
70.46166448115422
 21
107.6962604747015
 31
0.0
 11
70.6276532232134
 21
107.6488466402646
 31
0.0
 11
70.88471931031218
 21
107.6025379669193
 31
0.0
 11
71.14529131341845
 21
107.5870832623228
 31
0.0
  0
SPLINE
  5
558
330
1F
100
AcDbEntity
  8
Sichtbare_Kanten_TC_020513_DIN_
  6
Continuous
 62
     7
100
AcDbSpline
210
0.0
220
0.0
230
1.0
 70
     8
 71
     3
 72
    19
 73
    15
 74
    13
 42
0.000000001
 43
0.0000000001
 44
0.00000001
 40
0.0
 40
0.0
 40
0.0
 40
0.0
 40
0.3474606674146797
 40
0.6949175350295705
 40
0.8665696488948401
 40
1.038221191655902
 40
1.207484861389991
 40
1.376745209809279
 40
1.543251855853048
 40
1.709751057159685
 40
1.87344393453305
 40
2.037147336108992
 40
2.278188137687572
 40
2.518986528946334
 40
2.518986528946334
 40
2.518986528946334
 40
2.518986528946334
 10
113.300061413709
 20
107.5870832623228
 30
0.0
 10
113.4159931836218
 20
107.5923402247145
 30
0.0
 10
113.6478554544705
 20
107.6028541066826
 30
0.0
 10
113.9299272606413
 20
107.6739274243955
 30
0.0
 10
114.1457113624752
 20
107.7544944002142
 30
0.0
 10
114.3004481107888
 20
107.827488213459
 30
0.0
 10
114.4479248996468
 20
107.9125343835051
 30
0.0
 10
114.5863530059667
 20
108.0086941103711
 30
0.0
 10
114.7153632937984
 20
108.1157258047396
 30
0.0
 10
114.8332845838868
 20
108.232233116314
 30
0.0
 10
114.939948309429
 20
108.3579695814494
 30
0.0
 10
115.0488234797588
 20
108.5132057398984
 30
0.0
 10
115.1539571960304
 20
108.702228195149
 30
0.0
 10
115.2059364975399
 20
108.8544745309982
 30
0.0
 10
115.231913066287
 20
108.9305594043758
 30
0.0
 11
113.300061413709
 21
107.5870832623228
 31
0.0
 11
113.6464407329992
 21
107.6144745485615
 31
0.0
 11
113.9841017003603
 21
107.6963973571176
 31
0.0
 11
114.1448103195085
 21
107.7567064615188
 31
0.0
 11
114.3000614137091
 21
107.8299277019531
 31
0.0
 11
114.4466587216683
 21
107.914541054198
 31
0.0
 11
114.5856366330819
 21
108.0111547483658
 31
0.0
 11
114.7137462043313
 21
108.117514520698
 31
0.0
 11
114.8321502999469
 21
108.2345720042565
 31
0.0
 11
114.937946605282
 21
108.3594819726289
 31
0.0
 11
115.032112221278
 21
108.4933910493587
 31
0.0
 11
115.1473666390054
 21
108.7050915176744
 31
0.0
 11
115.231913066287
 21
108.9305594043758
 31
0.0
  0
SPLINE
  5
559
330
1F
100
AcDbEntity
  8
Sichtbare_Kanten_TC_020513_DIN_
  6
Continuous
 62
     7
100
AcDbSpline
210
0.0
220
0.0
230
1.0
 70
     8
 71
     3
 72
    19
 73
    15
 74
    13
 42
0.000000001
 43
0.0000000001
 44
0.00000001
 40
0.0
 40
0.0
 40
0.0
 40
0.0
 40
0.3474606674147611
 40
0.694917535029598
 40
0.8665696488947727
 40
1.038221191655767
 40
1.207484861389989
 40
1.376745209809492
 40
1.543251855853352
 40
1.709751057159989
 40
1.873443934533354
 40
2.037147336109287
 40
2.278188137687874
 40
2.518986528946618
 40
2.518986528946618
 40
2.518986528946618
 40
2.518986528946618
 10
113.300061413709
 20
108.1787488287588
 30
0.0
 10
113.4159931836218
 20
108.1840057911509
 30
0.0
 10
113.6478554544704
 20
108.1945196731197
 30
0.0
 10
113.9299272606412
 20
108.2655929908323
 30
0.0
 10
114.1457113624753
 20
108.3461599666506
 30
0.0
 10
114.3004481107888
 20
108.4191537798952
 30
0.0
 10
114.4479248996469
 20
108.5041999499416
 30
0.0
 10
114.5863530059667
 20
108.600359676808
 30
0.0
 10
114.7153632937984
 20
108.7073913711766
 30
0.0
 10
114.8332845838869
 20
108.823898682751
 30
0.0
 10
114.939948309429
 20
108.9496351478865
 30
0.0
 10
115.0488234797589
 20
109.1048713063355
 30
0.0
 10
115.1539571960304
 20
109.293893761586
 30
0.0
 10
115.2059364975399
 20
109.4461400974352
 30
0.0
 10
115.231913066287
 20
109.5222249708128
 30
0.0
 11
113.300061413709
 21
108.1787488287588
 31
0.0
 11
113.6464407329992
 21
108.2061401149984
 31
0.0
 11
113.9841017003603
 21
108.2880629235543
 31
0.0
 11
114.1448103195085
 21
108.3483720279553
 31
0.0
 11
114.3000614137091
 21
108.4215932683894
 31
0.0
 11
114.4466587216683
 21
108.5062066206345
 31
0.0
 11
114.5856366330819
 21
108.6028203148027
 31
0.0
 11
114.7137462043314
 21
108.709180087135
 31
0.0
 11
114.8321502999469
 21
108.8262375706935
 31
0.0
 11
114.937946605282
 21
108.951147539066
 31
0.0
 11
115.032112221278
 21
109.0850566157957
 31
0.0
 11
115.1473666390054
 21
109.2967570841114
 31
0.0
 11
115.231913066287
 21
109.5222249708128
 31
0.0
  0
LWPOLYLINE
  5
55A
330
1F
100
AcDbEntity
  8
Sichtbare_Kanten_TC_020513_DIN_
  6
Continuous
 62
     7
100
AcDbPolyline
 90
       25
 70
     0
 43
0.0
 10
238.16597208529
 20
126.0722997869578
 10
238.161077351861
 20
126.0584083284458
 10
238.1557796910331
 20
126.0427609170998
 10
238.15016254931
 20
126.0254529203498
 10
238.1443165257501
 20
126.0065844739998
 10
238.138325066857
 20
125.9862533296668
 10
238.132281155877
 20
125.9645572389678
 10
238.1262682393121
 20
125.9415963377078
 10
238.120374532037
 20
125.9174671854098
 10
238.114688248925
 20
125.8922675336918
 10
238.1092976048521
 20
125.8660987104498
 10
238.1042908146901
 20
125.8390560831148
 10
238.0998085454031
 20
125.8118096078958
 10
238.096017689996
 20
125.7859221185768
 10
238.092868180566
 20
125.7614854063118
 10
238.0903004124691
 20
125.7385090078438
 10
238.088252396874
 20
125.7170024599158
 10
238.086669297509
 20
125.6969776834568
 10
238.085491509728
 20
125.6784418310248
 10
238.084654660516
 20
125.6614056314548
 10
238.084106297784
 20
125.6458798135838
 10
238.083782048516
 20
125.6318739141548
 10
238.083622308068
 20
125.6193986620028
 10
238.083572240166
 20
125.6084624017798
 10
238.083567471795
 20
125.5990758623208
  0
LWPOLYLINE
  5
55B
330
1F
100
AcDbEntity
  8
Sichtbare_Kanten_TC_020513_DIN_
  6
Continuous
 62
     7
100
AcDbPolyline
 90
       25
 70
     0
 43
0.0
 10
239.483568520837
 20
126.9990757192698
 10
239.411921353631
 20
126.9972410883028
 10
239.3406079724361
 20
126.9917574609838
 10
239.2697618916561
 20
126.9826522554478
 10
239.199519009881
 20
126.9699564661108
 10
239.1300199940731
 20
126.9536987032018
 10
239.061398358636
 20
126.9339063848578
 10
238.993794770532
 20
126.9106105054938
 10
238.9273451283501
 20
126.8838396753388
 10
238.862304539971
 20
126.8536809171758
 10
238.79902109652
 20
126.8203023161018
 10
238.737611623101
 20
126.7837908948978
 10
238.678192944817
 20
126.7442265237888
 10
238.620877118402
 20
126.7016926492768
 10
238.5657785847711
 20
126.6562715257728
 10
238.513009400659
 20
126.6080442155918
 10
238.462684006982
 20
126.5570941652378
 10
238.4149692967461
 20
126.5035644258578
 10
238.370134682946
 20
126.4477613653268
 10
238.3282659962701
 20
126.3898220743258
 10
238.2894395306631
 20
126.3298669542388
 10
238.253724427514
 20
126.2680175985418
 10
238.221192212396
 20
126.2043920244298
 10
238.191916795068
 20
126.1391130174718
 10
238.16597208529
 20
126.0722997869578
  0
LWPOLYLINE
  5
55C
330
1F
100
AcDbEntity
  8
Sichtbare_Kanten_TC_020513_DIN_
  6
Continuous
 62
     7
100
AcDbPolyline
 90
       25
 70
     0
 43
0.0
 10
237.174248547845
 20
127.1824386800848
 10
237.239961476617
 20
127.2742560590828
 10
237.309393735223
 20
127.3634353365028
 10
237.382471413903
 20
127.4498573030548
 10
237.4590800717401
 20
127.5333598341068
 10
237.538897843652
 20
127.6135888780678
 10
237.621776910119
 20
127.6904240335548
 10
237.70760521441
 20
127.7637818540658
 10
237.7962706997921
 20
127.8335836614688
 10
237.8876636937191
 20
127.8997460092628
 10
237.981669755273
 20
127.9621878351288
 10
238.0781792119071
 20
128.0208268846598
 10
238.177077622705
 20
128.0755820955358
 10
238.278255315118
 20
128.1263712133488
 10
238.381521554284
 20
128.1730797971808
 10
238.486523480706
 20
128.2155433382118
 10
238.5931132748651
 20
128.2537117685398
 10
238.701162190728
 20
128.2875397886358
 10
238.810534329705
 20
128.3169844831548
 10
238.921084256463
 20
128.3419969762888
 10
239.032502026849
 20
128.3625045503698
 10
239.144596905999
 20
128.3784821714478
 10
239.2572329953241
 20
128.3899131502228
 10
239.370269627862
 20
128.3967831815798
 10
239.483568520837
 20
128.3990755762178
  0
LWPOLYLINE
  5
55D
330
1F
100
AcDbEntity
  8
Sichtbare_Kanten_TC_020513_DIN_
  6
Continuous
 62
     7
100
AcDbPolyline
 90
       25
 70
     0
 43
0.0
 10
238.083567471795
 20
115.6222614730918
 10
238.083798737816
 20
115.5967912162858
 10
238.084494920067
 20
115.5713394369208
 10
238.085651250176
 20
115.5459132875528
 10
238.087270112328
 20
115.5205181325998
 10
238.089349122338
 20
115.4951611246188
 10
238.091888280205
 20
115.4698482240758
 10
238.0948875859301
 20
115.4445853914338
 10
238.098344655327
 20
115.4193791832048
 10
238.102261872582
 20
115.3942361558998
 10
238.1066368535091
 20
115.3691616739358
 10
238.111467213921
 20
115.3441634859168
 10
238.11675295382
 20
115.3192463602148
 10
238.122491689019
 20
115.2944293703158
 10
238.128678651147
 20
115.2697315897068
 10
238.135311456017
 20
115.2451583828058
 10
238.142387719445
 20
115.2207157100758
 10
238.14990744143
 20
115.1964095319828
 10
238.1578658536
 20
115.1722464050378
 10
238.16626057177
 20
115.1482316936578
 10
238.1750939801261
 20
115.1243713583078
 10
238.18435892611
 20
115.1006719554978
 10
238.194055409722
 20
115.0771388496478
 10
238.204181046776
 20
115.0537780012208
 10
238.2147358372731
 20
115.0305959667288
  0
LWPOLYLINE
  5
55E
330
1F
100
AcDbEntity
  8
Sichtbare_Kanten_TC_020513_DIN_
  6
Continuous
 62
     7
100
AcDbPolyline
 90
       25
 70
     0
 43
0.0
 10
236.9459055378961
 20
114.4389304603658
 10
236.924795956902
 20
114.4852948273738
 10
236.9045446827931
 20
114.5320159281808
 10
236.8851493313831
 20
114.5790821398818
 10
236.8666194394161
 20
114.6264812435228
 10
236.84895500689
 20
114.6742016161998
 10
236.8321631863641
 20
114.7222313369828
 10
236.816246362023
 20
114.7705578888978
 10
236.801209302239
 20
114.8191699470598
 10
236.7870567753841
 20
114.8680552925188
 10
236.773791165642
 20
114.9172017063218
 10
236.7614172413871
 20
114.9665972675408
 10
236.7499373868031
 20
115.0162306512918
 10
236.7393659070061
 20
115.0660649026948
 10
236.729705186181
 20
115.1160618747788
 10
236.7209576085131
 20
115.1662102426608
 10
236.713123174004
 20
115.2164968933188
 10
236.7062090352101
 20
115.2669087137308
 10
236.70021042376
 20
115.3174343790138
 10
236.695129723839
 20
115.3680607761468
 10
236.69097170382
 20
115.4187747921068
 10
236.6877339795161
 20
115.4695645059668
 10
236.685421319298
 20
115.5204174007498
 10
236.684031338982
 20
115.5713203634348
 10
236.683566422753
 20
115.6222614730918
  0
LWPOLYLINE
  5
55F
330
1F
100
AcDbEntity
  8
Sichtbare_Kanten_TC_020513_DIN_
  6
Continuous
 62
     7
100
AcDbPolyline
 90
       25
 70
     0
 43
0.0
 10
236.776065678883
 20
127.1824386800848
 10
236.728308053304
 20
127.1829775060738
 10
236.680018754292
 20
127.1845975603188
 10
236.631228776265
 20
127.1873036111908
 10
236.581973882008
 20
127.1911004270638
 10
236.532289834309
 20
127.1959903921208
 10
236.4822123959551
 20
127.2019794668278
 10
236.431770177174
 20
127.2090712274628
 10
236.381003709126
 20
127.2172704423988
 10
236.3299439862261
 20
127.2265806879128
 10
236.278657765675
 20
127.2370019640048
 10
236.2284062817581
 20
127.2482839311678
 10
236.179883332539
 20
127.2601977075658
 10
236.133184285451
 20
127.2726073946078
 10
236.088402123738
 20
127.2853794778908
 10
236.045632214833
 20
127.2983792509158
 10
236.004967541981
 20
127.3114720071868
 10
235.966503472615
 20
127.3245242322998
 10
235.930337758351
 20
127.3374000276648
 10
235.8965586140641
 20
127.3499658788758
 10
235.865263791371
 20
127.3620858873448
 10
235.836548657704
 20
127.3736277307588
 10
235.810506196309
 20
127.3844555105288
 10
235.787229390431
 20
127.3944357122498
 10
235.766813607503
 20
127.4034336294258
  0
LWPOLYLINE
  5
560
330
1F
100
AcDbEntity
  8
Sichtbare_Kanten_TC_020513_DIN_
  6
Continuous
 62
     7
100
AcDbPolyline
 90
       25
 70
     0
 43
0.0
 10
235.766813607503
 20
127.4034336294258
 10
235.7468675091751
 20
127.4123624052128
 10
235.7268951848041
 20
127.4212899889068
 10
235.706903786946
 20
127.4302175726018
 10
235.68688854723
 20
127.4391451562958
 10
235.666854234028
 20
127.4480715478978
 10
235.64680084734
 20
127.4569991315928
 10
235.62672600298
 20
127.4659255231938
 10
235.606634469319
 20
127.4748531068888
 10
235.586526246358
 20
127.4837794984898
 10
235.566401334096
 20
127.4927070821838
 10
235.5462597325331
 20
127.5016358579718
 10
235.5261014416701
 20
127.5105646337588
 10
235.5059336140641
 20
127.5194922174538
 10
235.485753865529
 20
127.5284209932408
 10
235.46556458025
 20
127.5373485769358
 10
235.445368142415
 20
127.5462761606298
 10
235.4251621678361
 20
127.5552025522308
 10
235.4049490407001
 20
127.5641301359258
 10
235.384728761006
 20
127.5730565275278
 10
235.3645060971271
 20
127.5819829191288
 10
235.3442762806901
 20
127.5909105028238
 10
235.324041695882
 20
127.5998380865178
 10
235.303807111073
 20
127.6087668623048
 10
235.283567757893
 20
127.6176944459998
  0
LWPOLYLINE
  5
561
330
1F
100
AcDbEntity
  8
Sichtbare_Kanten_TC_020513_DIN_
  6
Continuous
 62
     7
100
AcDbPolyline
 90
       25
 70
     0
 43
0.0
 10
128.357205477333
 20
127.1824386800848
 10
128.371472445107
 20
127.1829477037508
 10
128.385219660378
 20
127.1844688142858
 10
128.398447123146
 20
127.1869912828528
 10
128.411154833412
 20
127.1905031885228
 10
128.42334040699
 20
127.1949961866458
 10
128.435006228066
 20
127.2004595483858
 10
128.446152296639
 20
127.2068801607218
 10
128.456778612709
 20
127.2142508710938
 10
128.466882792092
 20
127.2225585664828
 10
128.476455298042
 20
127.2317817892158
 10
128.485465136147
 20
127.2418657030188
 10
128.493926611519
 20
127.2527828897558
 10
128.501851645088
 20
127.2645095075688
 10
128.509254541969
 20
127.2770252908788
 10
128.516149607277
 20
127.2903052057348
 10
128.522517767525
 20
127.3042336191258
 10
128.528192129708
 20
127.3182705129708
 10
128.533196535683
 20
127.3321834291538
 10
128.5375739007951
 20
127.3458007062998
 10
128.541369524574
 20
127.3589506830298
 10
128.544631090737
 20
127.3714616979678
 10
128.547406282997
 20
127.3831608976448
 10
128.549735632515
 20
127.3938754285888
 10
128.551669207192
 20
127.4034336294258
  0
LWPOLYLINE
  5
562
330
1F
100
AcDbEntity
  8
Sichtbare_Kanten_TC_020513_DIN_
  6
Continuous
 62
     7
100
AcDbPolyline
 90
       25
 70
     0
 43
0.0
 10
129.930660811043
 20
127.4034336294258
 10
129.92702015934
 20
127.3944035257418
 10
129.9227095514301
 20
127.3843899454198
 10
129.9176503091811
 20
127.3735264028628
 10
129.911761370278
 20
127.3619511808478
 10
129.9049592882161
 20
127.3497954095918
 10
129.897163000679
 20
127.3371985639658
 10
129.888293829537
 20
127.3242917741858
 10
129.878270712471
 20
127.3112133230288
 10
129.86701020298
 20
127.2980979169928
 10
129.8544312387471
 20
127.2850790704808
 10
129.84045514164
 20
127.2722938741768
 10
129.825000849343
 20
127.2598758424838
 10
129.8079849153521
 20
127.2479620660868
 10
129.789326277352
 20
127.2366872514808
 10
129.769260969734
 20
127.2263208116608
 10
129.748127546883
 20
127.2170642103278
 10
129.725933161354
 20
127.2089138712008
 10
129.702689734078
 20
127.2018626417238
 10
129.67840441761
 20
127.1959093298038
 10
129.653091517067
 20
127.1910479749758
 10
129.626758185005
 20
127.1872750009618
 10
129.599413958168
 20
127.1845856393898
 10
129.571070757485
 20
127.1829751218878
 10
129.541735735512
 20
127.1824386800848
  0
LWPOLYLINE
  5
563
330
1F
100
AcDbEntity
  8
Sichtbare_Kanten_TC_020513_DIN_
  6
Continuous
 62
     7
100
AcDbPolyline
 90
       25
 70
     0
 43
0.0
 10
128.551669207192
 20
127.4034336294258
 10
128.553378668404
 20
127.4123624052128
 10
128.555016604042
 20
127.4212899889068
 10
128.5565830141071
 20
127.4302175726018
 10
128.558075514412
 20
127.4391451562958
 10
128.559496489144
 20
127.4480715478978
 10
128.560845938301
 20
127.4569991315928
 10
128.562121477699
 20
127.4659255231938
 10
128.563325491524
 20
127.4748531068888
 10
128.564457979775
 20
127.4837794984898
 10
128.565516558266
 20
127.4927070821838
 10
128.566501226998
 20
127.5016358579718
 10
128.567414370156
 20
127.5105646337588
 10
128.568253603554
 20
127.5194922174538
 10
128.569021311379
 20
127.5284209932408
 10
128.569715109444
 20
127.5373485769358
 10
128.570337381935
 20
127.5462761606298
 10
128.570885744667
 20
127.5552025522308
 10
128.57136019764
 20
127.5641301359258
 10
128.571763125038
 20
127.5730565275278
 10
128.5720921426781
 20
127.5819829191288
 10
128.572347250557
 20
127.5909105028238
 10
128.572530832863
 20
127.5998380865178
 10
128.572640505409
 20
127.6087668623048
 10
128.5726762681961
 20
127.6176944459998
  0
LWPOLYLINE
  5
564
330
1F
100
AcDbEntity
  8
Sichtbare_Kanten_TC_020513_DIN_
  6
Continuous
 62
     7
100
AcDbPolyline
 90
       25
 70
     0
 43
0.0
 10
129.972677317238
 20
127.6176944459998
 10
129.972603407479
 20
127.6087668623048
 10
129.972384062386
 20
127.5998380865178
 10
129.9720192819601
 20
127.5909105028238
 10
129.971506682015
 20
127.5819829191288
 10
129.970848646736
 20
127.5730565275278
 10
129.970045176125
 20
127.5641301359258
 10
129.969093885994
 20
127.5552025522308
 10
129.9679971605301
 20
127.5462761606298
 10
129.966754999733
 20
127.5373485769358
 10
129.965367403603
 20
127.5284209932408
 10
129.963831987953
 20
127.5194922174538
 10
129.962153521156
 20
127.5105646337588
 10
129.960327234841
 20
127.5016358579718
 10
129.958355513191
 20
127.4927070821838
 10
129.956238356209
 20
127.4837794984898
 10
129.953975763893
 20
127.4748531068888
 10
129.951567736244
 20
127.4659255231938
 10
129.949016657448
 20
127.4569991315928
 10
129.946317759132
 20
127.4480715478978
 10
129.94347580967
 20
127.4391451562958
 10
129.940488424873
 20
127.4302175726018
 10
129.9373579889301
 20
127.4212899889068
 10
129.9340797334671
 20
127.4123624052128
 10
129.930660811043
 20
127.4034336294258
  0
LWPOLYLINE
  5
565
330
1F
100
AcDbEntity
  8
Sichtbare_Kanten_TC_020513_DIN_
  6
Continuous
 62
     7
100
AcDbPolyline
 90
       25
 70
     0
 43
0.0
 10
117.096159544563
 20
115.6222614730918
 10
117.086331930733
 20
115.5713203634348
 10
117.076506701088
 20
115.5204174007498
 10
117.0666862398151
 20
115.4695645059668
 10
117.056868162728
 20
115.4187747921068
 10
117.04705008564
 20
115.3680607761468
 10
117.037234392739
 20
115.3174343790138
 10
117.027418699837
 20
115.2669087137308
 10
117.01760062275
 20
115.2164968933188
 10
117.007782545662
 20
115.1662102426608
 10
116.997962084389
 20
115.1160618747788
 10
116.988136854744
 20
115.0660649026948
 10
116.978309240914
 20
115.0162306512918
 10
116.968481627083
 20
114.9665972675408
 10
116.958656397438
 20
114.9172017063218
 10
116.948835936165
 20
114.8680552925188
 10
116.939017859078
 20
114.8191699470598
 10
116.92919978199
 20
114.7705578888978
 10
116.919384089089
 20
114.7222313369828
 10
116.909568396187
 20
114.6742016161998
 10
116.8997503191
 20
114.6264812435228
 10
116.889932242012
 20
114.5790821398818
 10
116.880111780739
 20
114.5320159281808
 10
116.870286551094
 20
114.4852948273738
 10
116.860458937264
 20
114.4389304603658
  0
LWPOLYLINE
  5
566
330
1F
100
AcDbEntity
  8
Sichtbare_Kanten_TC_020513_DIN_
  6
Continuous
 62
     7
100
AcDbPolyline
 90
       25
 70
     0
 43
0.0
 10
116.860458937264
 20
115.0305959667288
 10
116.870286551094
 20
115.0537780012208
 10
116.880111780739
 20
115.0771388496478
 10
116.889932242012
 20
115.1006719554978
 10
116.8997503191
 20
115.1243713583078
 10
116.909568396187
 20
115.1482316936578
 10
116.919384089089
 20
115.1722464050378
 10
116.92919978199
 20
115.1964095319828
 10
116.939017859078
 20
115.2207157100758
 10
116.948835936165
 20
115.2451583828058
 10
116.958656397438
 20
115.2697315897068
 10
116.968481627083
 20
115.2944293703158
 10
116.978309240914
 20
115.3192463602148
 10
116.988136854744
 20
115.3441634859168
 10
116.997962084389
 20
115.3691616739358
 10
117.007782545662
 20
115.3942361558998
 10
117.01760062275
 20
115.4193791832048
 10
117.027418699837
 20
115.4445853914338
 10
117.037234392739
 20
115.4698482240758
 10
117.04705008564
 20
115.4951611246188
 10
117.056868162728
 20
115.5205181325998
 10
117.0666862398151
 20
115.5459132875528
 10
117.076506701088
 20
115.5713394369208
 10
117.086331930733
 20
115.5967912162858
 10
117.096159544563
 20
115.6222614730918
  0
LWPOLYLINE
  5
567
330
1F
100
AcDbEntity
  8
Sichtbare_Kanten_TC_020513_DIN_
  6
Continuous
 62
     7
100
AcDbPolyline
 90
       25
 70
     0
 43
0.0
 10
115.594890204048
 20
128.3990755762178
 10
115.62252053318
 20
128.3954134668428
 10
115.650098410225
 20
128.3844652856908
 10
115.677642908669
 20
128.3662834848488
 10
115.705173101998
 20
128.3409252847748
 10
115.732703295326
 20
128.3084455217438
 10
115.7602549463271
 20
128.2688978399358
 10
115.787842360115
 20
128.2223406519018
 10
115.815484610176
 20
128.1688335622868
 10
115.843100634194
 20
128.1086543287358
 10
115.870668974495
 20
128.0420377935488
 10
115.898208704567
 20
127.9691401208958
 10
115.92573651371
 20
127.8901186670388
 10
115.953271475411
 20
127.8051284040528
 10
115.980830278969
 20
127.7143290723878
 10
116.008429613686
 20
127.6178756441198
 10
116.036079016304
 20
127.5159683908548
 10
116.063711729622
 20
127.4090960706788
 10
116.091334906197
 20
127.2975364412388
 10
116.118965235329
 20
127.1815100397188
 10
116.146614637947
 20
127.0612469400488
 10
116.174254503823
 20
126.9372049058998
 10
116.201877680397
 20
126.8097344125828
 10
116.229503241158
 20
126.6790893758858
 10
116.25715025959
 20
126.5455225195008
  0
LWPOLYLINE
  5
568
330
1F
100
AcDbEntity
  8
Sichtbare_Kanten_TC_020513_DIN_
  6
Continuous
 62
     7
100
AcDbPolyline
 90
       25
 70
     0
 43
0.0
 10
116.25715025959
 20
126.5455225195008
 10
116.274056521034
 20
126.4688506807408
 10
116.292159643746
 20
126.3966062749938
 10
116.311142531014
 20
126.3288095678408
 10
116.330690470314
 20
126.2654772485818
 10
116.350481596565
 20
126.2066307748878
 10
116.3702035814291
 20
126.1522904123388
 10
116.389539328194
 20
126.1024740423288
 10
116.408186045265
 20
126.0571661676488
 10
116.426708784676
 20
126.0145858015138
 10
116.44543894825
 20
125.9737411226358
 10
116.464271631813
 20
125.9346607412418
 10
116.483094778633
 20
125.8973696912848
 10
116.50180110035
 20
125.8618953908998
 10
116.520280924416
 20
125.8282628740388
 10
116.538424578285
 20
125.7964983667458
 10
116.556122389412
 20
125.7666304792488
 10
116.573267069435
 20
125.7386830534058
 10
116.589746561623
 20
125.7126846994478
 10
116.605453577614
 20
125.6886604513248
 10
116.620280829048
 20
125.6666365350808
 10
116.634113875008
 20
125.6466391767588
 10
116.646847811318
 20
125.6286969865878
 10
116.6583729654311
 20
125.6128326143348
 10
116.668577280617
 20
125.5990758623208
  0
LWPOLYLINE
  5
569
330
1F
100
AcDbEntity
  8
Sichtbare_Kanten_TC_020513_DIN_
  6
Continuous
 62
     7
100
AcDbPolyline
 90
       25
 70
     0
 43
0.0
 10
116.25715025959
 20
126.0722997869578
 10
116.229493704415
 20
126.1391070570068
 10
116.201891985512
 20
126.2043705667578
 10
116.174328413582
 20
126.2679699148258
 10
116.146783915138
 20
126.3297858919228
 10
116.119241800881
 20
126.3896992887578
 10
116.091682997322
 20
126.4475908960428
 10
116.064090815163
 20
126.5033415044868
 10
116.03644379673
 20
126.5568307127078
 10
116.0087777048111
 20
126.6078487123568
 10
115.981168833351
 20
126.6561260904398
 10
115.95360049305
 20
126.7015782083588
 10
115.92605361042
 20
126.7441263879858
 10
115.8985114961631
 20
126.7836907590948
 10
115.870957460976
 20
126.8201938356478
 10
115.843370047188
 20
126.8535545553288
 10
115.815734949684
 20
126.8836954320988
 10
115.788064089394
 20
126.9105079855048
 10
115.760440912819
 20
126.9338420118418
 10
115.732855883217
 20
126.9536605562288
 10
115.705292311287
 20
126.9699373926248
 10
115.677731123543
 20
126.9826451028908
 10
115.650155630684
 20
126.9917550767978
 10
115.62254914341
 20
126.9972410883028
 10
115.594890204048
 20
126.9990757192698
  0
LWPOLYLINE
  5
56A
330
1F
100
AcDbEntity
  8
Sichtbare_Kanten_TC_020513_DIN_
  6
Continuous
 62
     7
100
AcDbPolyline
 90
       25
 70
     0
 43
0.0
 10
116.668577280617
 20
125.5990758623208
 10
116.654672709084
 20
125.6084624017798
 10
116.638913241005
 20
125.6193986620028
 10
116.621494379616
 20
125.6318739141548
 10
116.602614012337
 20
125.6458798135838
 10
116.582462874031
 20
125.6614056314548
 10
116.56123885212
 20
125.6784418310248
 10
116.539137449837
 20
125.6969776834568
 10
116.516351786232
 20
125.7170024599158
 10
116.49307736454
 20
125.7385090078438
 10
116.469509687996
 20
125.7614854063118
 10
116.445844259834
 20
125.7859221185768
 10
116.422274199104
 20
125.8118096078958
 10
116.399059382057
 20
125.8390560831148
 10
116.37751587925
 20
125.8660987104498
 10
116.358018007851
 20
125.8922675336918
 10
116.3404584795
 20
125.9174671854098
 10
116.324734774208
 20
125.9415963377078
 10
116.310739603615
 20
125.9645572389678
 10
116.29836567936
 20
125.9862533296668
 10
116.287510481453
 20
126.0065844739998
 10
116.278066721535
 20
126.0254529203498
 10
116.26992949543
 20
126.0427609170998
 10
116.262991514778
 20
126.0584083284458
 10
116.25715025959
 20
126.0722997869578
  0
LWPOLYLINE
  5
56B
330
1F
100
AcDbEntity
  8
Sichtbare_Kanten_TC_020513_DIN_
  6
Continuous
 62
     7
100
AcDbPolyline
 90
       25
 70
     0
 43
0.0
 10
68.18820246753711
 20
126.0722997869578
 10
68.18236121234912
 20
126.0584083284458
 10
68.17542323169721
 20
126.0427609170998
 10
68.16728600559253
 20
126.0254529203498
 10
68.15784224567432
 20
126.0065844739998
 10
68.14698704776782
 20
125.9862533296668
 10
68.13461312351245
 20
125.9645572389678
 10
68.12061795291919
 20
125.9415963377078
 10
68.10489424762744
 20
125.9174671854098
 10
68.08733471927661
 20
125.8922675336918
 10
68.06783684787769
 20
125.8660987104498
 10
68.04629334507001
 20
125.8390560831148
 10
68.02307852802295
 20
125.8118096078958
 10
67.99950846729291
 20
125.7859221185768
 10
67.97584303913135
 20
125.7614854063118
 10
67.9522753625871
 20
125.7385090078438
 10
67.92900094089521
 20
125.7170024599158
 10
67.90621527729053
 20
125.6969776834568
 10
67.88411387500781
 20
125.6784418310248
 10
67.86288985309619
 20
125.6614056314548
 10
67.84273871479053
 20
125.6458798135838
 10
67.82385834751153
 20
125.6318739141548
 10
67.80643948612231
 20
125.6193986620028
 10
67.7906800180437
 20
125.6084624017798
 10
67.7767754465105
 20
125.5990758623208
  0
LWPOLYLINE
  5
56C
330
1F
100
AcDbEntity
  8
Sichtbare_Kanten_TC_020513_DIN_
  6
Continuous
 62
     7
100
AcDbPolyline
 90
       25
 70
     0
 43
0.0
 10
67.7767754465105
 20
125.5990758623208
 10
67.78697976169605
 20
125.6128326143348
 10
67.79850491580981
 20
125.6286969865878
 10
67.81123885211963
 20
125.6466391767588
 10
67.8250718980791
 20
125.6666365350808
 10
67.83989914951343
 20
125.6886604513248
 10
67.85560616550464
 20
125.7126846994478
 10
67.87208565769214
 20
125.7386830534058
 10
67.88923033771533
 20
125.7666304792488
 10
67.90692814884204
 20
125.7964983667458
 10
67.92507180271173
 20
125.8282628740388
 10
67.94355162677783
 20
125.8618953908998
 10
67.96225794849414
 20
125.8973696912848
 10
67.98108109531421
 20
125.9346607412418
 10
67.99991377887744
 20
125.9737411226358
 10
68.0186439424516
 20
126.0145858015138
 10
68.037166681862
 20
126.0571661676488
 10
68.0558133989336
 20
126.1024740423288
 10
68.07514914569873
 20
126.1522904123388
 10
68.09487113056201
 20
126.2066307748878
 10
68.11466225681323
 20
126.2654772485818
 10
68.13421019611371
 20
126.3288095678408
 10
68.15319308338184
 20
126.3966062749938
 10
68.17129620609302
 20
126.4688506807408
 10
68.18820246753711
 20
126.5455225195008
  0
LWPOLYLINE
  5
56D
330
1F
100
AcDbEntity
  8
Sichtbare_Kanten_TC_020513_DIN_
  6
Continuous
 62
     7
100
AcDbPolyline
 90
       25
 70
     0
 43
0.0
 10
68.8504625230791
 20
126.9990757192698
 10
68.82280596790332
 20
126.9972410883028
 10
68.79520663318652
 20
126.9917574609838
 10
68.76764306125659
 20
126.9826522554478
 10
68.74009856281299
 20
126.9699564661108
 10
68.71255406436939
 20
126.9536987032018
 10
68.68499526081104
 20
126.9339063848578
 10
68.65740307865161
 20
126.9106105054938
 10
68.629756060219
 20
126.8838396753388
 10
68.60209235248584
 20
126.8536809171758
 10
68.57448109684009
 20
126.8203023161018
 10
68.54691275653863
 20
126.7837908948978
 10
68.51936587390924
 20
126.7442265237888
 10
68.49182375965131
 20
126.7016926492768
 10
68.4642697244646
 20
126.6562715257728
 10
68.43668469486255
 20
126.6080442155918
 10
68.4090472131731
 20
126.5570941652378
 10
68.38137635288251
 20
126.5035644258578
 10
68.3537531763078
 20
126.4477613653268
 10
68.32616814670581
 20
126.3898220743258
 10
68.29860457477594
 20
126.3298669542388
 10
68.27104338703174
 20
126.2680175985418
 10
68.24346789417285
 20
126.2043920244298
 10
68.21586140689874
 20
126.1391130174718
 10
68.18820246753711
 20
126.0722997869578
  0
LWPOLYLINE
  5
56E
330
1F
100
AcDbEntity
  8
Sichtbare_Kanten_TC_020513_DIN_
  6
Continuous
 62
     7
100
AcDbPolyline
 90
       25
 70
     0
 43
0.0
 10
68.18820246753711
 20
126.5455225195008
 10
68.21583279666919
 20
126.6790130819398
 10
68.24341067371381
 20
126.8094375814518
 10
68.27095517215753
 20
126.9365564073648
 10
68.29848536548633
 20
127.0601299490058
 10
68.32601555881519
 20
127.1799174036108
 10
68.3535672098161
 20
127.2956815446938
 10
68.381154623604
 20
127.4071803773958
 10
68.40879687366504
 20
127.5141611780248
 10
68.43641289768243
 20
127.6160422052468
 10
68.46398362216974
 20
127.7124920572358
 10
68.4915233522417
 20
127.8033450330818
 10
68.51905116138471
 20
127.8884354318698
 10
68.54658373889941
 20
127.9675975526888
 10
68.57414254245771
 20
128.0406680788118
 10
68.6017418771745
 20
128.1074813093268
 10
68.62939127979291
 20
128.1678477014618
 10
68.65702637729663
 20
128.2214608873448
 10
68.68464716968555
 20
128.2681945051278
 10
68.71227749881763
 20
128.3079579557498
 10
68.73992690143604
 20
128.3406606401528
 10
68.76756676731134
 20
128.3661714281168
 10
68.79519232807183
 20
128.3844319070898
 10
68.82281788883233
 20
128.3954098905648
 10
68.8504625230791
 20
128.3990755762178
  0
LWPOLYLINE
  5
56F
330
1F
100
AcDbEntity
  8
Sichtbare_Kanten_TC_020513_DIN_
  6
Continuous
 62
     7
100
AcDbPolyline
 90
       25
 70
     0
 43
0.0
 10
55.89368351993579
 20
127.4034336294258
 10
55.8955121904375
 20
127.3943498815618
 10
55.89764842090625
 20
127.3843708719338
 10
55.90013512668634
 20
127.3736158098298
 10
55.90301522312183
 20
127.3622086729128
 10
55.90632924137134
 20
127.3502698625648
 10
55.91011532840753
 20
127.3379209722598
 10
55.91441401538873
 20
127.3252847875678
 10
55.91926821765924
 20
127.3124817098698
 10
55.92471846637744
 20
127.2996345247348
 10
55.93080529270191
 20
127.2868648256388
 10
55.93756684360523
 20
127.2742942060548
 10
55.94504603443164
 20
127.2620442594608
 10
55.95328578052539
 20
127.2502365793308
 10
55.96232184467334
 20
127.2389939512338
 10
55.97212800083184
 20
127.2285094942178
 10
55.98255881366754
 20
127.2190323556978
 10
55.99361189899463
 20
127.2105935300908
 10
56.0052967935564
 20
127.2032132829748
 10
56.01762541828174
 20
127.1969130720218
 10
56.03057869968433
 20
127.1917226995548
 10
56.04411610660571
 20
127.1876719678958
 10
56.05822571811694
 20
127.1847692216958
 10
56.07290515003223
 20
127.1830228056038
 10
56.08814724979419
 20
127.1824386800848
  0
LWPOLYLINE
  5
570
330
1F
100
AcDbEntity
  8
Sichtbare_Kanten_TC_020513_DIN_
  6
Continuous
 62
     7
100
AcDbPolyline
 90
       25
 70
     0
 43
0.0
 10
54.90361699161554
 20
127.1824386800848
 10
54.87419852314014
 20
127.1829775060738
 10
54.84577664432544
 20
127.1845975603188
 10
54.81836089191455
 20
127.1873036111908
 10
54.79196080265064
 20
127.1911004270638
 10
54.7665859132768
 20
127.1959903921208
 10
54.74224814472211
 20
127.2019794668278
 10
54.71895464954395
 20
127.2090712274628
 10
54.69671734867114
 20
127.2172704423988
 10
54.67554816303272
 20
127.2265806879128
 10
54.6554637819292
 20
127.2370019640048
 10
54.63687666950244
 20
127.2482839311678
 10
54.61992749271411
 20
127.2601977075658
 10
54.60453042087573
 20
127.2726073946078
 10
54.59060916004199
 20
127.2853794778908
 10
54.578082647896
 20
127.2983792509158
 10
54.566867437935
 20
127.3114720071868
 10
54.55688485202813
 20
127.3245242322998
 10
54.54805144367242
 20
127.3374000276648
 10
54.54028853473682
 20
127.3499658788758
 10
54.53351506290454
 20
127.3620858873448
 10
54.52764996585864
 20
127.3736277307588
 10
54.52261218128223
 20
127.3844555105288
 10
54.5183206468584
 20
127.3944357122498
 10
54.51469191608453
 20
127.4034336294258
  0
LWPOLYLINE
  5
571
330
1F
100
AcDbEntity
  8
Sichtbare_Kanten_TC_020513_DIN_
  6
Continuous
 62
     7
100
AcDbPolyline
 90
       25
 70
     0
 43
0.0
 10
55.8726764589311
 20
127.6176944459998
 10
55.87271222171802
 20
127.6087668623048
 10
55.87282189426441
 20
127.5998380865178
 10
55.87300547657031
 20
127.5909105028238
 10
55.87326058444995
 20
127.5819829191288
 10
55.87358960208911
 20
127.5730565275278
 10
55.87399252948779
 20
127.5641301359258
 10
55.87446698246021
 20
127.5552025522308
 10
55.87501534519214
 20
127.5462761606298
 10
55.87563761768359
 20
127.5373485769358
 10
55.87633141574884
 20
127.5284209932408
 10
55.87709912357354
 20
127.5194922174538
 10
55.87793835697192
 20
127.5105646337588
 10
55.87885150012994
 20
127.5016358579718
 10
55.87983616886163
 20
127.4927070821838
 10
55.88089474735284
 20
127.4837794984898
 10
55.88202723560352
 20
127.4748531068888
 10
55.88323124942804
 20
127.4659255231938
 10
55.88450678882623
 20
127.4569991315928
 10
55.88585623798394
 20
127.4480715478978
 10
55.88727721271533
 20
127.4391451562958
 10
55.88876971302051
 20
127.4302175726018
 10
55.89033612308521
 20
127.4212899889068
 10
55.89197405872363
 20
127.4123624052128
 10
55.89368351993579
 20
127.4034336294258
  0
LWPOLYLINE
  5
572
330
1F
100
AcDbEntity
  8
Sichtbare_Kanten_TC_020513_DIN_
  6
Continuous
 62
     7
100
AcDbPolyline
 90
       25
 70
     0
 43
0.0
 10
54.51469191608453
 20
127.4034336294258
 10
54.5112729936601
 20
127.4123624052128
 10
54.50799473819751
 20
127.4212899889068
 10
54.50486430225391
 20
127.4302175726018
 10
54.50187691745782
 20
127.4391451562958
 10
54.49903496799493
 20
127.4480715478978
 10
54.49633606967944
 20
127.4569991315928
 10
54.493784990883
 20
127.4659255231938
 10
54.49137696323413
 20
127.4748531068888
 10
54.4891143709184
 20
127.4837794984898
 10
54.48699721393604
 20
127.4927070821838
 10
54.48502549228692
 20
127.5016358579718
 10
54.48319920597095
 20
127.5105646337588
 10
54.48152073917413
 20
127.5194922174538
 10
54.4799853235246
 20
127.5284209932408
 10
54.47859772739434
 20
127.5373485769358
 10
54.47735556659711
 20
127.5462761606298
 10
54.4762588411333
 20
127.5552025522308
 10
54.47530755100274
 20
127.5641301359258
 10
54.47450408039111
 20
127.5730565275278
 10
54.47384604511279
 20
127.5819829191288
 10
54.47333344516773
 20
127.5909105028238
 10
54.4729686647417
 20
127.5998380865178
 10
54.47274931964893
 20
127.6087668623048
 10
54.47267540988941
 20
127.6176944459998
  0
LWPOLYLINE
  5
573
330
1F
100
AcDbEntity
  8
Sichtbare_Kanten_TC_020513_DIN_
  6
Continuous
 62
     7
100
AcDbPolyline
 90
       25
 70
     0
 43
0.0
 10
67.34919318256391
 20
115.6222614730918
 10
67.35902079639453
 20
115.5967912162858
 10
67.36884602603931
 20
115.5713394369208
 10
67.3786664873125
 20
115.5459132875528
 10
67.3884845643999
 20
115.5205181325998
 10
67.3983026414873
 20
115.4951611246188
 10
67.40811833438892
 20
115.4698482240758
 10
67.41793402729053
 20
115.4445853914338
 10
67.42775210437793
 20
115.4193791832048
 10
67.43757018146533
 20
115.3942361558998
 10
67.44739064273853
 20
115.3691616739358
 10
67.4572158723833
 20
115.3441634859168
 10
67.46704348621381
 20
115.3192463602148
 10
67.47687110004443
 20
115.2944293703158
 10
67.48669632968921
 20
115.2697315897068
 10
67.4965167909624
 20
115.2451583828058
 10
67.5063348680498
 20
115.2207157100758
 10
67.51615294513721
 20
115.1964095319828
 10
67.52596863803882
 20
115.1722464050378
 10
67.53578433094043
 20
115.1482316936578
 10
67.54560240802783
 20
115.1243713583078
 10
67.55542048511523
 20
115.1006719554978
 10
67.56524094638843
 20
115.0771388496478
 10
67.5750661760332
 20
115.0537780012208
 10
67.58489378986371
 20
115.0305959667288
  0
LWPOLYLINE
  5
574
330
1F
100
AcDbEntity
  8
Sichtbare_Kanten_TC_020513_DIN_
  6
Continuous
 62
     7
100
AcDbPolyline
 90
       25
 70
     0
 43
0.0
 10
67.58489378986371
 20
114.4389304603658
 10
67.5750661760332
 20
114.4852948273738
 10
67.56524094638843
 20
114.5320159281808
 10
67.55542048511523
 20
114.5790821398818
 10
67.54560240802783
 20
114.6264812435228
 10
67.53578433094043
 20
114.6742016161998
 10
67.52596863803882
 20
114.7222313369828
 10
67.51615294513721
 20
114.7705578888978
 10
67.5063348680498
 20
114.8191699470598
 10
67.4965167909624
 20
114.8680552925188
 10
67.48669632968921
 20
114.9172017063218
 10
67.47687110004443
 20
114.9665972675408
 10
67.46704348621381
 20
115.0162306512918
 10
67.4572158723833
 20
115.0660649026948
 10
67.44739064273853
 20
115.1160618747788
 10
67.43757018146533
 20
115.1662102426608
 10
67.42775210437793
 20
115.2164968933188
 10
67.41793402729053
 20
115.2669087137308
 10
67.40811833438892
 20
115.3174343790138
 10
67.3983026414873
 20
115.3680607761468
 10
67.3884845643999
 20
115.4187747921068
 10
67.3786664873125
 20
115.4695645059668
 10
67.36884602603931
 20
115.5204174007498
 10
67.35902079639453
 20
115.5713203634348
 10
67.34919318256391
 20
115.6222614730918
  0
LWPOLYLINE
  5
575
330
1F
100
AcDbEntity
  8
Sichtbare_Kanten_TC_020513_DIN_
  6
Continuous
 62
     7
100
AcDbPolyline
 90
       25
 70
     0
 43
0.0
 10
101.933006730652
 20
97.60481626644977
 10
101.935615029907
 20
97.6048114980778
 10
101.938498702622
 20
97.60479361668479
 10
101.941626754379
 20
97.60475427761878
 10
101.944965210533
 20
97.60468871250978
 10
101.948482480622
 20
97.60458738461378
 10
101.952146378136
 20
97.60444433346578
 10
101.955922928429
 20
97.60425359860278
 10
101.959781137085
 20
97.60400683537378
 10
101.96368822155
 20
97.60369689122078
 10
101.967610803223
 20
97.60331780567978
 10
101.971517291641
 20
97.60286242619378
 10
101.9753749042511
 20
97.60232360020478
 10
101.979151454544
 20
97.60169298306278
 10
101.982813563919
 20
97.60096580639677
 10
101.986329641915
 20
97.60013372555579
 10
101.989681807137
 20
97.59918481961077
 10
101.992905226326
 20
97.59808094158979
 10
101.995939698792
 20
97.59680421009878
 10
101.998712506867
 20
97.59533674374478
 10
102.001150336838
 20
97.59366662159778
 10
102.003181663132
 20
97.59177238598679
 10
102.004731979943
 20
97.58963257923978
 10
102.005707111931
 20
97.58725673809877
 10
102.006039109802
 20
97.58468181744479
  0
LWPOLYLINE
  5
576
330
1F
100
AcDbEntity
  8
Sichtbare_Kanten_TC_020513_DIN_
  6
Continuous
 62
     7
100
AcDbPolyline
 90
       25
 70
     0
 43
0.0
 10
82.43931361732501
 20
97.58468181744479
 10
82.43945428428674
 20
97.58639247074979
 10
82.4400187402727
 20
97.58838565007079
 10
82.4412156015398
 20
97.59057314053379
 10
82.44308182296771
 20
97.59270221844477
 10
82.4454314380647
 20
97.59456665173377
 10
82.44816311893481
 20
97.59618551388579
 10
82.45120772418994
 20
97.59759218350277
 10
82.45453068313611
 20
97.59882003918477
 10
82.45806941089654
 20
97.59988100186177
 10
82.46176132259393
 20
97.60079176083377
 10
82.46554502544421
 20
97.60156542912378
 10
82.46938058433551
 20
97.60221988812279
 10
82.47330018577594
 20
97.60277897969078
 10
82.47727402744312
 20
97.60325224057078
 10
82.4812687307359
 20
97.60364682331877
 10
82.48524793682111
 20
97.60396868840078
 10
82.48917767105121
 20
97.60422618046579
 10
82.49302217063922
 20
97.60442525997979
 10
82.49674626884479
 20
97.60457427159179
 10
82.50031599102039
 20
97.60468036785977
 10
82.5036961704256
 20
97.60475070133978
 10
82.5068510442735
 20
97.60479242459178
 10
82.5097460418703
 20
97.6048114980778
 10
82.5123459964754
 20
97.60481626644977
  0
SOLID
  5
577
330
1F
100
AcDbEntity
  8
Symbole_TC_020513_DIN_
 62
     7
100
AcDbTrace
 10
232.0083814740717
 20
57.62529003330001
 30
0.0
 11
231.5725440873744
 21
57.13197950697628
 31
0.0
 12
229.916930051136
 22
59.03389158138108
 32
0.0
 13
229.916930051136
 23
59.03389158138108
 33
0.0
  0
LEADER
  5
578
330
1F
100
AcDbEntity
  8
Symbole_TC_020513_DIN_
  6
Continuous
 62
     7
100
AcDbLeader
  3
Standard
 71
     0
 76
     3
 10
229.916930051136
 20
59.03389158138108
 30
0.0
 10
242.921551001384
 20
47.54437390945068
 30
0.0
 10
244.621551001384
 20
47.54437390945068
 30
0.0
  0
DIMENSION
  5
584
330
1F
100
AcDbEntity
  8
Bemaßungen_TC_020513_DIN_
100
AcDbDimension
  2
*D3
 10
183.9169300511343
 20
43.95081100033144
 30
0.0
 11
210.2980146350361
 21
48.32482191438328
 31
0.0
 70
    32
  1
52
 71
     5
 42
-1.0
 53
0.00013888888889
  3
ME10_DIM_10
100
AcDbAlignedDimension
 13
235.916930051134
 23
61.82145340100138
 33
0.0
 14
183.916930051134
 24
61.82145340100138
 34
0.0
100
AcDbRotatedDimension
  0
DIMENSION
  5
58F
330
1F
100
AcDbEntity
  8
Bemaßungen_TC_020513_DIN_
100
AcDbDimension
  2
*D4
 10
189.9169300511353
 20
51.87613280329266
 30
0.0
 11
210.215647650044
 21
56.25014371734449
 31
0.0
 70
    32
  1
40
 71
     5
 42
-1.0
 53
0.00013888888889
  3
ME10_DIM_11
100
AcDbAlignedDimension
 13
229.916930051136
 23
57.32145340100149
 33
0.0
 14
189.916930051136
 24
57.32145340100149
 34
0.0
100
AcDbRotatedDimension
  0
DIMENSION
  5
59A
330
1F
100
AcDbEntity
  8
Bemaßungen_TC_020513_DIN_
100
AcDbDimension
  2
*D5
 10
258.847072488008
 20
63.8214534010014
 30
0.0
 11
254.547072488008
 21
62.04601683892778
 31
0.0
 70
    32
  1
4
 71
     5
 42
-1.0
 53
90.0
  3
ME10_DIM_12
100
AcDbAlignedDimension
 13
235.916930051134
 23
59.82145340100149
 33
0.0
 14
235.916930051134
 24
63.82145340100149
 34
0.0
 50
90.0
100
AcDbRotatedDimension
  0
DIMENSION
  5
5A5
330
1F
100
AcDbEntity
  8
Bemaßungen_TC_020513_DIN_
100
AcDbDimension
  2
*D6
 10
269.9169300511336
 20
116.8214534010014
 30
0.0
 11
265.557243830124
 21
88.68463211860038
 31
0.0
 70
    32
  1
57
 71
     5
 42
-1.0
 53
90.0
  3
ME10_DIM_13
100
AcDbAlignedDimension
 13
235.916930051134
 23
59.82145340100149
 33
0.0
 14
229.0669300511381
 24
116.8214534010018
 34
0.0
 50
90.0
100
AcDbRotatedDimension
  0
DIMENSION
  5
5B0
330
1F
100
AcDbEntity
  8
Bemaßungen_TC_020513_DIN_
100
AcDbDimension
  2
*D7
 10
162.6669300511378
 20
166.3214534010015
 30
0.0
 11
209.6220837545961
 21
170.6978517638938
 31
0.0
 70
    32
  1
93
 71
     5
 42
-1.0
 53
0.00013888888889
  3
ME10_DIM_14
100
AcDbAlignedDimension
 13
255.8508800228571
 23
98.82145340100178
 33
0.0
 14
162.666930051138
 24
156.3214534010018
 34
0.0
100
AcDbRotatedDimension
  0
DIMENSION
  5
5BB
330
1F
100
AcDbEntity
  8
Bemaßungen_TC_020513_DIN_
100
AcDbDimension
  2
*D8
 10
34.03855117922838
 20
181.3214534010014
 30
0.0
 11
29.03186632247531
 21
121.9927016956808
 31
0.0
 70
    32
  1
121,5
 71
     5
 42
-1.0
 53
90.0
  3
ME10_DIM_15
100
AcDbAlignedDimension
 13
45.47267636356372
 23
59.82145340100149
 33
0.0
 14
83.22267636356372
 24
181.3214534010018
 34
0.0
 50
90.0
100
AcDbRotatedDimension
  0
DIMENSION
  5
5C6
330
1F
100
AcDbEntity
  8
Bemaßungen_TC_020513_DIN_
100
AcDbDimension
  2
*D9
 10
50.47267636356329
 20
144.6603880574728
 30
0.0
 11
103.259118218423
 21
149.6670729142258
 31
0.0
 70
    32
  1
83,5
 71
     5
 42
-1.0
 53
0.00013888888889
  3
ME10_DIM_16
100
AcDbAlignedDimension
 13
133.9726763635641
 23
109.8214534010018
 33
0.0
 14
50.47267636356372
 24
109.8214534010018
 34
0.0
100
AcDbRotatedDimension
  0
DIMENSION
  5
5D1
330
1F
100
AcDbEntity
  8
Bemaßungen_TC_020513_DIN_
100
AcDbDimension
  2
*D10
 10
45.47267636356369
 20
44.91731365922922
 30
0.0
 11
93.40384280285429
 21
49.92399851598228
 31
0.0
 70
    32
  1
93,5
 71
     5
 42
-1.0
 53
0.00013888888889
  3
ME10_DIM_17
100
AcDbAlignedDimension
 13
138.9726763635641
 23
61.82145340100138
 33
0.0
 14
45.47267636356372
 24
61.82145340100138
 34
0.0
100
AcDbRotatedDimension
  0
DIMENSION
  5
5DC
330
1F
100
AcDbEntity
  8
Bemaßungen_TC_020513_DIN_
100
AcDbDimension
  2
*D11
 10
119.9726763635637
 20
51.68283227151311
 30
0.0
 11
92.6299762846474
 21
56.67519243522389
 31
0.0
 70
    32
  1
55,5
 71
     5
 42
-1.0
 53
0.00013888888889
  3
ME10_DIM_18
100
AcDbAlignedDimension
 13
64.47267636356372
 23
59.82145340100149
 33
0.0
 14
119.972676363564
 24
59.82145340100149
 34
0.0
100
AcDbRotatedDimension
  0
DIMENSION
  5
5E7
330
1F
100
AcDbEntity
  8
Bemaßungen_TC_020513_DIN_
100
AcDbDimension
  2
*D12
 10
148.6679499954049
 20
88.73145340100149
 30
0.0
 11
144.5794233245301
 21
75.80550797126068
 31
0.0
 70
    32
  1
M20
 71
     5
 42
-1.0
 53
90.0
  3
ME10_DIM_19
100
AcDbAlignedDimension
 13
138.9726763635641
 23
64.65945340100137
 33
0.0
 14
138.9726763635641
 24
88.73145340100149
 34
0.0
 50
90.0
100
AcDbRotatedDimension
  0
ENDSEC
  0
SECTION
  2
OBJECTS
  0
DICTIONARY
  5
C
330
0
100
AcDbDictionary
281
     1
  3
ACAD_GROUP
350
D
  3
ACAD_LAYOUT
350
1A
  3
ACAD_MATERIAL
350
3B
  3
ACAD_MLEADERSTYLE
350
5EA
  3
ACAD_MLINESTYLE
350
17
  3
ACAD_PLOTSETTINGS
350
19
  3
ACAD_PLOTSTYLENAME
350
E
  3
ACAD_VISUALSTYLE
350
2A
  3
AcDbVariableDictionary
350
5E8
  0
DICTIONARY
  5
D
102
{ACAD_REACTORS
330
C
102
}
330
C
100
AcDbDictionary
281
     1
  0
DICTIONARY
  5
1A
102
{ACAD_REACTORS
330
C
102
}
330
C
100
AcDbDictionary
281
     1
  3
Layout1
350
1E
  3
Layout2
350
26
  3
Model
350
22
  0
DICTIONARY
  5
3B
102
{ACAD_REACTORS
330
C
102
}
330
C
100
AcDbDictionary
281
     1
  3
ByBlock
350
3D
  3
ByLayer
350
3C
  3
Global
350
3E
  0
DICTIONARY
  5
5EA
102
{ACAD_REACTORS
330
C
102
}
330
C
100
AcDbDictionary
281
     1
  0
DICTIONARY
  5
17
102
{ACAD_REACTORS
330
C
102
}
330
C
100
AcDbDictionary
281
     1
  3
Standard
350
18
  0
DICTIONARY
  5
19
102
{ACAD_REACTORS
330
C
102
}
330
C
100
AcDbDictionary
281
     1
  0
ACDBDICTIONARYWDFLT
  5
E
102
{ACAD_REACTORS
330
C
102
}
330
C
100
AcDbDictionary
281
     1
  3
Normal
350
F
100
AcDbDictionaryWithDefault
340
F
  0
DICTIONARY
  5
2A
102
{ACAD_REACTORS
330
C
102
}
330
C
100
AcDbDictionary
281
     1
  3
2dWireframe
350
2F
  3
3D Hidden
350
31
  3
3dWireframe
350
30
  3
Basic
350
32
  3
Brighten
350
36
  3
ColorChange
350
3A
  3
Conceptual
350
34
  3
Dim
350
35
  3
Facepattern
350
39
  3
Flat
350
2B
  3
FlatWithEdges
350
2C
  3
Gouraud
350
2D
  3
GouraudWithEdges
350
2E
  3
Linepattern
350
38
  3
Realistic
350
33
  3
Thicken
350
37
  0
DICTIONARY
  5
5E8
102
{ACAD_REACTORS
330
C
102
}
330
C
100
AcDbDictionary
281
     1
  3
DIMASSOC
350
5EB
  3
HIDETEXT
350
5EC
  0
LAYOUT
  5
1E
102
{ACAD_REACTORS
330
1A
102
}
330
1A
100
AcDbPlotSettings
  1

  2
none_device
  4

  6

 40
0.0
 41
0.0
 42
0.0
 43
0.0
 44
0.0
 45
0.0
 46
0.0
 47
0.0
 48
0.0
 49
0.0
140
0.0
141
0.0
142
1.0
143
1.0
 70
   688
 72
     0
 73
     0
 74
     5
  7

 75
    16
147
1.0
148
0.0
149
0.0
100
AcDbLayout
  1
Layout1
 70
     1
 71
     1
 10
0.0
 20
0.0
 11
12.0
 21
9.0
 12
0.0
 22
0.0
 32
0.0
 14
1.00000000000000E+20
 24
1.00000000000000E+20
 34
1.00000000000000E+20
 15
-1.00000000000000E+20
 25
-1.00000000000000E+20
 35
-1.00000000000000E+20
146
0.0
 13
0.0
 23
0.0
 33
0.0
 16
1.0
 26
0.0
 36
0.0
 17
0.0
 27
1.0
 37
0.0
 76
     0
330
1B
  0
LAYOUT
  5
26
102
{ACAD_REACTORS
330
1A
102
}
330
1A
100
AcDbPlotSettings
  1

  2
none_device
  4

  6

 40
0.0
 41
0.0
 42
0.0
 43
0.0
 44
0.0
 45
0.0
 46
0.0
 47
0.0
 48
0.0
 49
0.0
140
0.0
141
0.0
142
1.0
143
1.0
 70
   688
 72
     0
 73
     0
 74
     5
  7

 75
    16
147
1.0
148
0.0
149
0.0
100
AcDbLayout
  1
Layout2
 70
     1
 71
     2
 10
0.0
 20
0.0
 11
0.0
 21
0.0
 12
0.0
 22
0.0
 32
0.0
 14
0.0
 24
0.0
 34
0.0
 15
0.0
 25
0.0
 35
0.0
146
0.0
 13
0.0
 23
0.0
 33
0.0
 16
1.0
 26
0.0
 36
0.0
 17
0.0
 27
1.0
 37
0.0
 76
     0
330
23
  0
LAYOUT
  5
22
102
{ACAD_REACTORS
330
1A
102
}
330
1A
100
AcDbPlotSettings
  1

  2
none_device
  4

  6

 40
0.0
 41
0.0
 42
0.0
 43
0.0
 44
0.0
 45
0.0
 46
0.0
 47
0.0
 48
0.0
 49
0.0
140
0.0
141
0.0
142
1.0
143
1.0
 70
  1712
 72
     0
 73
     0
 74
     0
  7

 75
     0
147
1.0
148
0.0
149
0.0
100
AcDbLayout
  1
Model
 70
     1
 71
     0
 10
0.0
 20
0.0
 11
12.0
 21
9.0
 12
0.0
 22
0.0
 32
0.0
 14
0.0
 24
0.0
 34
0.0
 15
297.0000000000002
 25
210.0000000000001
 35
0.0
146
0.0
 13
0.0
 23
0.0
 33
0.0
 16
1.0
 26
0.0
 36
0.0
 17
0.0
 27
1.0
 37
0.0
 76
     0
330
1F
331
29
  0
MATERIAL
  5
3D
102
{ACAD_REACTORS
330
3B
102
}
102
{ACAD_XDICTIONARY
360
60F
102
}
330
3B
100
AcDbMaterial
  1
ByBlock
  0
MATERIAL
  5
3C
102
{ACAD_REACTORS
330
3B
102
}
102
{ACAD_XDICTIONARY
360
60D
102
}
330
3B
100
AcDbMaterial
  1
ByLayer
  0
MATERIAL
  5
3E
102
{ACAD_REACTORS
330
3B
102
}
102
{ACAD_XDICTIONARY
360
611
102
}
330
3B
100
AcDbMaterial
  1
Global
  0
MLINESTYLE
  5
18
102
{ACAD_REACTORS
330
17
102
}
330
17
100
AcDbMlineStyle
  2
Standard
 70
     0
  3

 62
   256
 51
90.0
 52
90.0
 71
     2
 49
0.5
 62
   256
  6
BYLAYER
 49
-0.5
 62
   256
  6
BYLAYER
  0
ACDBPLACEHOLDER
  5
F
102
{ACAD_REACTORS
330
E
102
}
330
E
  0
VISUALSTYLE
  5
2F
102
{ACAD_REACTORS
330
2A
102
}
102
{ACAD_XDICTIONARY
360
5F5
102
}
330
2A
100
AcDbVisualStyle
  2
2dWireframe
 70
     4
 71
     0
 72
     2
 73
     0
 90
        0
 40
-0.6
 41
-30.0
 62
     5
 63
     7
 74
     1
 91
        4
 64
     7
 65
   257
 75
     1
175
     1
 42
1.0
 92
        0
 66
   257
 43
1.0
 76
     1
 77
     6
 78
     2
 67
     7
 79
     5
170
     0
171
     0
290
     0
174
     0
 93
        1
 44
0.0
173
     0
291
     0
 45
0.0
1001
ACAD
1000
AcDbSavedByObjectVersion
1070
     0
  0
VISUALSTYLE
  5
31
102
{ACAD_REACTORS
330
2A
102
}
102
{ACAD_XDICTIONARY
360
5F9
102
}
330
2A
100
AcDbVisualStyle
  2
3D Hidden
 70
     6
 71
     1
 72
     2
 73
     2
 90
        0
 40
-0.6
 41
-30.0
 62
     5
 63
     7
 74
     2
 91
        2
 64
     7
 65
   257
 75
     2
175
     1
 42
40.0
 92
        0
 66
   257
 43
1.0
 76
     1
 77
     6
 78
     2
 67
     7
 79
     3
170
     0
171
     0
290
     0
174
     0
 93
        1
 44
0.0
173
     0
291
     0
 45
0.0
1001
ACAD
1000
AcDbSavedByObjectVersion
1070
     0
  0
VISUALSTYLE
  5
30
102
{ACAD_REACTORS
330
2A
102
}
102
{ACAD_XDICTIONARY
360
5F7
102
}
330
2A
100
AcDbVisualStyle
  2
3dWireframe
 70
     5
 71
     0
 72
     2
 73
     0
 90
        0
 40
-0.6
 41
-30.0
 62
     5
 63
     7
 74
     1
 91
        4
 64
     7
 65
   257
 75
     1
175
     1
 42
1.0
 92
        0
 66
   257
 43
1.0
 76
     1
 77
     6
 78
     2
 67
     7
 79
     5
170
     0
171
     0
290
     0
174
     0
 93
        1
 44
0.0
173
     0
291
     0
 45
0.0
1001
ACAD
1000
AcDbSavedByObjectVersion
1070
     0
  0
VISUALSTYLE
  5
32
102
{ACAD_REACTORS
330
2A
102
}
102
{ACAD_XDICTIONARY
360
5FB
102
}
330
2A
100
AcDbVisualStyle
  2
Basic
 70
     7
 71
     1
 72
     0
 73
     1
 90
        0
 40
-0.6
 41
-30.0
 62
     5
 63
     7
 74
     0
 91
        4
 64
     7
 65
   257
 75
     1
175
     1
 42
1.0
 92
        8
 66
     7
 43
1.0
 76
     1
 77
     6
 78
     2
 67
     7
 79
     5
170
     0
171
     0
290
     0
174
     0
 93
        1
 44
0.0
173
     0
291
     1
 45
0.0
1001
ACAD
1000
AcDbSavedByObjectVersion
1070
     0
  0
VISUALSTYLE
  5
36
102
{ACAD_REACTORS
330
2A
102
}
102
{ACAD_XDICTIONARY
360
603
102
}
330
2A
100
AcDbVisualStyle
  2
Brighten
 70
    12
 71
     2
 72
     2
 73
     0
 90
        0
 40
-0.6
 41
-30.0
 62
     5
 63
     7
 74
     1
 91
        4
 64
     7
 65
   257
 75
     1
175
     1
 42
1.0
 92
        8
 66
     7
 43
1.0
 76
     1
 77
     6
 78
     2
 67
     7
 79
     5
170
     0
171
     0
290
     0
174
     0
 93
        1
 44
50.0
173
     0
291
     1
 45
0.0
1001
ACAD
1000
AcDbSavedByObjectVersion
1070
     0
  0
VISUALSTYLE
  5
3A
102
{ACAD_REACTORS
330
2A
102
}
102
{ACAD_XDICTIONARY
360
60B
102
}
330
2A
100
AcDbVisualStyle
  2
ColorChange
 70
    16
 71
     2
 72
     2
 73
     3
 90
        0
 40
-0.6
 41
-30.0
 62
     5
 63
     8
 74
     1
 91
        4
 64
     7
 65
   257
 75
     1
175
     1
 42
1.0
 92
        8
 66
     8
 43
1.0
 76
     1
 77
     6
 78
     2
 67
     7
 79
     5
170
     0
171
     0
290
     0
174
     0
 93
        1
 44
0.0
173
     0
291
     1
 45
0.0
1001
ACAD
1000
AcDbSavedByObjectVersion
1070
     0
  0
VISUALSTYLE
  5
34
102
{ACAD_REACTORS
330
2A
102
}
102
{ACAD_XDICTIONARY
360
5FF
102
}
330
2A
100
AcDbVisualStyle
  2
Conceptual
 70
     9
 71
     3
 72
     2
 73
     0
 90
        0
 40
-0.6
 41
-30.0
 62
     5
 63
     7
 74
     2
 91
        2
 64
     7
 65
   257
 75
     1
175
     1
 42
40.0
 92
        8
 66
     7
 43
1.0
 76
     1
 77
     6
 78
     2
 67
     7
 79
     3
170
     0
171
     0
290
     0
174
     0
 93
        1
 44
0.0
173
     0
291
     0
 45
0.0
1001
ACAD
1000
AcDbSavedByObjectVersion
1070
     0
  0
VISUALSTYLE
  5
35
102
{ACAD_REACTORS
330
2A
102
}
102
{ACAD_XDICTIONARY
360
601
102
}
330
2A
100
AcDbVisualStyle
  2
Dim
 70
    11
 71
     2
 72
     2
 73
     0
 90
        0
 40
-0.6
 41
-30.0
 62
     5
 63
     7
 74
     1
 91
        4
 64
     7
 65
   257
 75
     1
175
     1
 42
1.0
 92
        8
 66
     7
 43
1.0
 76
     1
 77
     6
 78
     2
 67
     7
 79
     5
170
     0
171
     0
290
     0
174
     0
 93
        1
 44
-50.0
173
     0
291
     1
 45
0.0
1001
ACAD
1000
AcDbSavedByObjectVersion
1070
     0
  0
VISUALSTYLE
  5
39
102
{ACAD_REACTORS
330
2A
102
}
102
{ACAD_XDICTIONARY
360
609
102
}
330
2A
100
AcDbVisualStyle
  2
Facepattern
 70
    15
 71
     2
 72
     2
 73
     0
 90
        0
 40
-0.6
 41
-30.0
 62
     5
 63
     7
 74
     1
 91
        4
 64
     7
 65
   257
 75
     1
175
     1
 42
1.0
 92
        8
 66
     7
 43
1.0
 76
     1
 77
     6
 78
     2
 67
     7
 79
     5
170
     0
171
     0
290
     0
174
     0
 93
        1
 44
0.0
173
     0
291
     1
 45
0.0
1001
ACAD
1000
AcDbSavedByObjectVersion
1070
     0
  0
VISUALSTYLE
  5
2B
102
{ACAD_REACTORS
330
2A
102
}
102
{ACAD_XDICTIONARY
360
5ED
102
}
330
2A
100
AcDbVisualStyle
  2
Flat
 70
     0
 71
     2
 72
     1
 73
     1
 90
        2
 40
-0.6
 41
30.0
 62
     5
 63
     7
 74
     0
 91
        4
 64
     7
 65
   257
 75
     1
175
     1
 42
1.0
 92
        8
 66
     7
 43
1.0
 76
     1
 77
     6
 78
     2
 67
     7
 79
     5
170
     0
171
     0
290
     0
174
     0
 93
       13
 44
0.0
173
     0
291
     1
 45
0.0
1001
ACAD
1000
AcDbSavedByObjectVersion
1070
     0
  0
VISUALSTYLE
  5
2C
102
{ACAD_REACTORS
330
2A
102
}
102
{ACAD_XDICTIONARY
360
5EF
102
}
330
2A
100
AcDbVisualStyle
  2
FlatWithEdges
 70
     1
 71
     2
 72
     1
 73
     1
 90
        2
 40
-0.6
 41
30.0
 62
     5
 63
     7
 74
     1
 91
        4
 64
     7
 65
   257
 75
     1
175
     1
 42
1.0
 92
        0
 66
   257
 43
1.0
 76
     1
 77
     6
 78
     2
 67
     7
 79
     5
170
     0
171
     0
290
     0
174
     0
 93
       13
 44
0.0
173
     0
291
     1
 45
0.0
1001
ACAD
1000
AcDbSavedByObjectVersion
1070
     0
  0
VISUALSTYLE
  5
2D
102
{ACAD_REACTORS
330
2A
102
}
102
{ACAD_XDICTIONARY
360
5F1
102
}
330
2A
100
AcDbVisualStyle
  2
Gouraud
 70
     2
 71
     2
 72
     2
 73
     1
 90
        2
 40
-0.6
 41
30.0
 62
     5
 63
     7
 74
     0
 91
        4
 64
     7
 65
   257
 75
     1
175
     1
 42
1.0
 92
        0
 66
     7
 43
1.0
 76
     1
 77
     6
 78
     2
 67
     7
 79
     5
170
     0
171
     0
290
     0
174
     0
 93
       13
 44
0.0
173
     0
291
     1
 45
0.0
1001
ACAD
1000
AcDbSavedByObjectVersion
1070
     0
  0
VISUALSTYLE
  5
2E
102
{ACAD_REACTORS
330
2A
102
}
102
{ACAD_XDICTIONARY
360
5F3
102
}
330
2A
100
AcDbVisualStyle
  2
GouraudWithEdges
 70
     3
 71
     2
 72
     2
 73
     1
 90
        2
 40
-0.6
 41
30.0
 62
     5
 63
     7
 74
     1
 91
        4
 64
     7
 65
   257
 75
     1
175
     1
 42
1.0
 92
        0
 66
   257
 43
1.0
 76
     1
 77
     6
 78
     2
 67
     7
 79
     5
170
     0
171
     0
290
     0
174
     0
 93
       13
 44
0.0
173
     0
291
     1
 45
0.0
1001
ACAD
1000
AcDbSavedByObjectVersion
1070
     0
  0
VISUALSTYLE
  5
38
102
{ACAD_REACTORS
330
2A
102
}
102
{ACAD_XDICTIONARY
360
607
102
}
330
2A
100
AcDbVisualStyle
  2
Linepattern
 70
    14
 71
     2
 72
     2
 73
     0
 90
        0
 40
-0.6
 41
-30.0
 62
     5
 63
     7
 74
     1
 91
        4
 64
     7
 65
   257
 75
     7
175
     7
 42
1.0
 92
        8
 66
     7
 43
1.0
 76
     1
 77
     6
 78
     2
 67
     7
 79
     5
170
     0
171
     0
290
     0
174
     0
 93
        1
 44
0.0
173
     0
291
     1
 45
0.0
1001
ACAD
1000
AcDbSavedByObjectVersion
1070
     0
  0
VISUALSTYLE
  5
33
102
{ACAD_REACTORS
330
2A
102
}
102
{ACAD_XDICTIONARY
360
5FD
102
}
330
2A
100
AcDbVisualStyle
  2
Realistic
 70
     8
 71
     2
 72
     2
 73
     0
 90
        0
 40
-0.6
 41
-30.0
 62
     5
 63
     7
 74
     1
 91
        0
 64
     7
 65
   257
 75
     1
175
     1
 42
1.0
 92
        8
 66
     8
 43
1.0
 76
     1
 77
     6
 78
     2
 67
     7
 79
     5
170
     0
171
     0
290
     0
174
     0
 93
       13
 44
0.0
173
     0
291
     0
 45
0.0
1001
ACAD
1000
AcDbSavedByObjectVersion
1070
     0
  0
VISUALSTYLE
  5
37
102
{ACAD_REACTORS
330
2A
102
}
102
{ACAD_XDICTIONARY
360
605
102
}
330
2A
100
AcDbVisualStyle
  2
Thicken
 70
    13
 71
     2
 72
     2
 73
     0
 90
        0
 40
-0.6
 41
-30.0
 62
     5
 63
     7
 74
     1
 91
        4
 64
     7
 65
   257
 75
     1
175
     1
 42
1.0
 92
       12
 66
     7
 43
1.0
 76
     1
 77
     6
 78
     2
 67
     7
 79
     5
170
     0
171
     0
290
     0
174
     0
 93
        1
 44
0.0
173
     0
291
     1
 45
0.0
1001
ACAD
1000
AcDbSavedByObjectVersion
1070
     0
  0
DICTIONARYVAR
  5
5EB
102
{ACAD_REACTORS
330
5E8
102
}
330
5E8
100
DictionaryVariables
280
     0
  1
2
  0
DICTIONARYVAR
  5
5EC
102
{ACAD_REACTORS
330
5E8
102
}
330
5E8
100
DictionaryVariables
280
     0
  1
1
  0
DICTIONARY
  5
60F
330
3D
100
AcDbDictionary
280
     1
281
     1
  3
ACAD_XREC_ROUNDTRIP
360
610
  0
DICTIONARY
  5
60D
330
3C
100
AcDbDictionary
280
     1
281
     1
  3
ACAD_XREC_ROUNDTRIP
360
60E
  0
DICTIONARY
  5
611
330
3E
100
AcDbDictionary
280
     1
281
     1
  3
ACAD_XREC_ROUNDTRIP
360
612
  0
DICTIONARY
  5
5F5
330
2F
100
AcDbDictionary
280
     1
281
     1
  3
ACAD_XREC_ROUNDTRIP
360
5F6
  0
DICTIONARY
  5
5F9
330
31
100
AcDbDictionary
280
     1
281
     1
  3
ACAD_XREC_ROUNDTRIP
360
5FA
  0
DICTIONARY
  5
5F7
330
30
100
AcDbDictionary
280
     1
281
     1
  3
ACAD_XREC_ROUNDTRIP
360
5F8
  0
DICTIONARY
  5
5FB
330
32
100
AcDbDictionary
280
     1
281
     1
  3
ACAD_XREC_ROUNDTRIP
360
5FC
  0
DICTIONARY
  5
603
330
36
100
AcDbDictionary
280
     1
281
     1
  3
ACAD_XREC_ROUNDTRIP
360
604
  0
DICTIONARY
  5
60B
330
3A
100
AcDbDictionary
280
     1
281
     1
  3
ACAD_XREC_ROUNDTRIP
360
60C
  0
DICTIONARY
  5
5FF
330
34
100
AcDbDictionary
280
     1
281
     1
  3
ACAD_XREC_ROUNDTRIP
360
600
  0
DICTIONARY
  5
601
330
35
100
AcDbDictionary
280
     1
281
     1
  3
ACAD_XREC_ROUNDTRIP
360
602
  0
DICTIONARY
  5
609
330
39
100
AcDbDictionary
280
     1
281
     1
  3
ACAD_XREC_ROUNDTRIP
360
60A
  0
DICTIONARY
  5
5ED
330
2B
100
AcDbDictionary
280
     1
281
     1
  3
ACAD_XREC_ROUNDTRIP
360
5EE
  0
DICTIONARY
  5
5EF
330
2C
100
AcDbDictionary
280
     1
281
     1
  3
ACAD_XREC_ROUNDTRIP
360
5F0
  0
DICTIONARY
  5
5F1
330
2D
100
AcDbDictionary
280
     1
281
     1
  3
ACAD_XREC_ROUNDTRIP
360
5F2
  0
DICTIONARY
  5
5F3
330
2E
100
AcDbDictionary
280
     1
281
     1
  3
ACAD_XREC_ROUNDTRIP
360
5F4
  0
DICTIONARY
  5
607
330
38
100
AcDbDictionary
280
     1
281
     1
  3
ACAD_XREC_ROUNDTRIP
360
608
  0
DICTIONARY
  5
5FD
330
33
100
AcDbDictionary
280
     1
281
     1
  3
ACAD_XREC_ROUNDTRIP
360
5FE
  0
DICTIONARY
  5
605
330
37
100
AcDbDictionary
280
     1
281
     1
  3
ACAD_XREC_ROUNDTRIP
360
606
  0
XRECORD
  5
610
102
{ACAD_REACTORS
330
60F
102
}
330
60F
100
AcDbXrecord
280
     1
102
MATERIAL
148
0.0
149
0.0
149
0.0
 93
        0
 94
      127
282
     0
 72
     1
 77
     1
171
     1
175
     1
179
     1
273
     0
  0
XRECORD
  5
60E
102
{ACAD_REACTORS
330
60D
102
}
330
60D
100
AcDbXrecord
280
     1
102
MATERIAL
148
0.0
149
0.0
149
0.0
 93
        0
 94
      127
282
     0
 72
     1
 77
     1
171
     1
175
     1
179
     1
273
     0
  0
XRECORD
  5
612
102
{ACAD_REACTORS
330
611
102
}
330
611
100
AcDbXrecord
280
     1
102
MATERIAL
148
0.0
149
0.0
149
0.0
 93
        0
 94
      127
282
     0
 72
     1
 77
     1
171
     1
175
     1
179
     1
273
     0
  0
XRECORD
  5
5F6
102
{ACAD_REACTORS
330
5F5
102
}
330
5F5
100
AcDbXrecord
280
     1
102
RTVSPropertyOp0
 70
     1
102
RTVSPropertyOp1
 70
     1
102
RTVSPropertyOp2
 70
     1
102
RTVSPropertyOp3
 70
     1
102
RTVSPropertyOp4
 70
     1
102
RTVSPropertyOp5
 70
     1
102
RTVSPropertyOp6
 70
     1
102
RTVSPropertyOp7
 70
     1
102
RTVSPropertyOp8
 70
     1
102
RTVSPropertyOp9
 70
     1
102
RTVSPropertyOp10
 70
     1
102
RTVSPropertyOp11
 70
     1
102
RTVSPropertyOp12
 70
     1
102
RTVSPropertyOp13
 70
     1
102
RTVSPropertyOp14
 70
     1
102
RTVSPropertyOp15
 70
     1
102
RTVSPropertyOp16
 70
     1
102
RTVSPropertyOp17
 70
     1
102
RTVSPropertyOp18
 70
     1
102
RTVSPropertyOp19
 70
     1
102
RTVSPropertyOp20
 70
     1
102
RTVSPropertyOp21
 70
     1
102
RTVSPropertyOp22
 70
     1
102
RTVSPropertyOp23
 70
     1
102
RTVSPropertyOp24
 70
     1
102
RTVSPropertyOp25
 70
     1
102
RTVSPropertyOp26
 70
     1
102
RTVSPropertyOp27
 70
     1
102
RTVSPropertyOp28
 70
     1
102
RTVSPropertyOp29
 70
     1
102
RTVSPropertyOp30
 70
     1
102
RTVSPropertyOp31
 70
     1
102
RTVSPropertyOp32
 70
     1
  0
XRECORD
  5
5FA
102
{ACAD_REACTORS
330
5F9
102
}
330
5F9
100
AcDbXrecord
280
     1
102
RTVSPropertyOp0
 70
     1
102
RTVSPropertyOp1
 70
     1
102
RTVSPropertyOp2
 70
     1
102
RTVSPropertyOp3
 70
     1
102
RTVSPropertyOp4
 70
     1
102
RTVSPropertyOp5
 70
     1
102
RTVSPropertyOp6
 70
     1
102
RTVSPropertyOp7
 70
     1
102
RTVSPropertyOp8
 70
     1
102
RTVSPropertyOp9
 70
     1
102
RTVSPropertyOp10
 70
     1
102
RTVSPropertyOp11
 70
     1
102
RTVSPropertyOp12
 70
     1
102
RTVSPropertyOp13
 70
     1
102
RTVSPropertyOp14
 70
     1
102
RTVSPropertyOp15
 70
     1
102
RTVSPropertyOp16
 70
     1
102
RTVSPropertyOp17
 70
     1
102
RTVSPropertyOp18
 70
     1
102
RTVSPropertyOp19
 70
     1
102
RTVSPropertyOp20
 70
     1
102
RTVSPropertyOp21
 70
     1
102
RTVSPropertyOp22
 70
     1
102
RTVSPropertyOp23
 70
     1
102
RTVSPropertyOp24
 70
     1
102
RTVSPropertyOp25
 70
     1
102
RTVSPropertyOp26
 70
     1
102
RTVSPropertyOp27
 70
     1
102
RTVSPropertyOp28
 70
     1
102
RTVSPropertyOp29
 70
     1
102
RTVSPropertyOp30
 70
     1
102
RTVSPropertyOp31
 70
     1
102
RTVSPropertyOp32
 70
     1
  0
XRECORD
  5
5F8
102
{ACAD_REACTORS
330
5F7
102
}
330
5F7
100
AcDbXrecord
280
     1
102
RTVSPropertyOp0
 70
     1
102
RTVSPropertyOp1
 70
     1
102
RTVSPropertyOp2
 70
     1
102
RTVSPropertyOp3
 70
     1
102
RTVSPropertyOp4
 70
     1
102
RTVSPropertyOp5
 70
     1
102
RTVSPropertyOp6
 70
     1
102
RTVSPropertyOp7
 70
     1
102
RTVSPropertyOp8
 70
     1
102
RTVSPropertyOp9
 70
     1
102
RTVSPropertyOp10
 70
     1
102
RTVSPropertyOp11
 70
     1
102
RTVSPropertyOp12
 70
     1
102
RTVSPropertyOp13
 70
     1
102
RTVSPropertyOp14
 70
     1
102
RTVSPropertyOp15
 70
     1
102
RTVSPropertyOp16
 70
     1
102
RTVSPropertyOp17
 70
     1
102
RTVSPropertyOp18
 70
     1
102
RTVSPropertyOp19
 70
     1
102
RTVSPropertyOp20
 70
     1
102
RTVSPropertyOp21
 70
     1
102
RTVSPropertyOp22
 70
     1
102
RTVSPropertyOp23
 70
     1
102
RTVSPropertyOp24
 70
     1
102
RTVSPropertyOp25
 70
     1
102
RTVSPropertyOp26
 70
     1
102
RTVSPropertyOp27
 70
     1
102
RTVSPropertyOp28
 70
     1
102
RTVSPropertyOp29
 70
     1
102
RTVSPropertyOp30
 70
     1
102
RTVSPropertyOp31
 70
     1
102
RTVSPropertyOp32
 70
     1
  0
XRECORD
  5
5FC
102
{ACAD_REACTORS
330
5FB
102
}
330
5FB
100
AcDbXrecord
280
     1
102
RTVSPropertyOp0
 70
     1
102
RTVSPropertyOp1
 70
     1
102
RTVSPropertyOp2
 70
     1
102
RTVSPropertyOp3
 70
     1
102
RTVSPropertyOp4
 70
     1
102
RTVSPropertyOp5
 70
     1
102
RTVSPropertyOp6
 70
     1
102
RTVSPropertyOp7
 70
     1
102
RTVSPropertyOp8
 70
     1
102
RTVSPropertyOp9
 70
     1
102
RTVSPropertyOp10
 70
     1
102
RTVSPropertyOp11
 70
     1
102
RTVSPropertyOp12
 70
     1
102
RTVSPropertyOp13
 70
     1
102
RTVSPropertyOp14
 70
     1
102
RTVSPropertyOp15
 70
     1
102
RTVSPropertyOp16
 70
     1
102
RTVSPropertyOp17
 70
     1
102
RTVSPropertyOp18
 70
     1
102
RTVSPropertyOp19
 70
     1
102
RTVSPropertyOp20
 70
     1
102
RTVSPropertyOp21
 70
     1
102
RTVSPropertyOp22
 70
     1
102
RTVSPropertyOp23
 70
     1
102
RTVSPropertyOp24
 70
     1
102
RTVSPropertyOp25
 70
     1
102
RTVSPropertyOp26
 70
     1
102
RTVSPropertyOp27
 70
     1
102
RTVSPropertyOp28
 70
     1
102
RTVSPropertyOp29
 70
     1
102
RTVSPropertyOp30
 70
     1
102
RTVSPropertyOp31
 70
     1
102
RTVSPropertyOp32
 70
     1
  0
XRECORD
  5
604
102
{ACAD_REACTORS
330
603
102
}
330
603
100
AcDbXrecord
280
     1
102
RTVSPropertyOp0
 70
     1
102
RTVSPropertyOp1
 70
     1
102
RTVSPropertyOp2
 70
     1
102
RTVSPropertyOp3
 70
     1
102
RTVSPropertyOp4
 70
     1
102
RTVSPropertyOp5
 70
     1
102
RTVSPropertyOp6
 70
     1
102
RTVSPropertyOp7
 70
     1
102
RTVSPropertyOp8
 70
     1
102
RTVSPropertyOp9
 70
     1
102
RTVSPropertyOp10
 70
     1
102
RTVSPropertyOp11
 70
     1
102
RTVSPropertyOp12
 70
     1
102
RTVSPropertyOp13
 70
     1
102
RTVSPropertyOp14
 70
     1
102
RTVSPropertyOp15
 70
     1
102
RTVSPropertyOp16
 70
     1
102
RTVSPropertyOp17
 70
     1
102
RTVSPropertyOp18
 70
     1
102
RTVSPropertyOp19
 70
     1
102
RTVSPropertyOp20
 70
     1
102
RTVSPropertyOp21
 70
     1
102
RTVSPropertyOp22
 70
     1
102
RTVSPropertyOp23
 70
     1
102
RTVSPropertyOp24
 70
     1
102
RTVSPropertyOp25
 70
     1
102
RTVSPropertyOp26
 70
     1
102
RTVSPropertyOp27
 70
     1
102
RTVSPropertyOp28
 70
     1
102
RTVSPropertyOp29
 70
     1
102
RTVSPropertyOp30
 70
     1
102
RTVSPropertyOp31
 70
     1
102
RTVSPropertyOp32
 70
     1
  0
XRECORD
  5
60C
102
{ACAD_REACTORS
330
60B
102
}
330
60B
100
AcDbXrecord
280
     1
102
RTVSPropertyOp0
 70
     1
102
RTVSPropertyOp1
 70
     1
102
RTVSPropertyOp2
 70
     1
102
RTVSPropertyOp3
 70
     1
102
RTVSPropertyOp4
 70
     1
102
RTVSPropertyOp5
 70
     1
102
RTVSPropertyOp6
 70
     1
102
RTVSPropertyOp7
 70
     1
102
RTVSPropertyOp8
 70
     1
102
RTVSPropertyOp9
 70
     1
102
RTVSPropertyOp10
 70
     1
102
RTVSPropertyOp11
 70
     1
102
RTVSPropertyOp12
 70
     1
102
RTVSPropertyOp13
 70
     1
102
RTVSPropertyOp14
 70
     1
102
RTVSPropertyOp15
 70
     1
102
RTVSPropertyOp16
 70
     1
102
RTVSPropertyOp17
 70
     1
102
RTVSPropertyOp18
 70
     1
102
RTVSPropertyOp19
 70
     1
102
RTVSPropertyOp20
 70
     1
102
RTVSPropertyOp21
 70
     1
102
RTVSPropertyOp22
 70
     1
102
RTVSPropertyOp23
 70
     1
102
RTVSPropertyOp24
 70
     1
102
RTVSPropertyOp25
 70
     1
102
RTVSPropertyOp26
 70
     1
102
RTVSPropertyOp27
 70
     1
102
RTVSPropertyOp28
 70
     1
102
RTVSPropertyOp29
 70
     1
102
RTVSPropertyOp30
 70
     1
102
RTVSPropertyOp31
 70
     1
102
RTVSPropertyOp32
 70
     1
  0
XRECORD
  5
600
102
{ACAD_REACTORS
330
5FF
102
}
330
5FF
100
AcDbXrecord
280
     1
102
RTVSPropertyOp0
 70
     1
102
RTVSPropertyOp1
 70
     1
102
RTVSPropertyOp2
 70
     1
102
RTVSPropertyOp3
 70
     1
102
RTVSPropertyOp4
 70
     1
102
RTVSPropertyOp5
 70
     1
102
RTVSPropertyOp6
 70
     1
102
RTVSPropertyOp7
 70
     1
102
RTVSPropertyOp8
 70
     1
102
RTVSPropertyOp9
 70
     1
102
RTVSPropertyOp10
 70
     1
102
RTVSPropertyOp11
 70
     1
102
RTVSPropertyOp12
 70
     1
102
RTVSPropertyOp13
 70
     1
102
RTVSPropertyOp14
 70
     1
102
RTVSPropertyOp15
 70
     1
102
RTVSPropertyOp16
 70
     1
102
RTVSPropertyOp17
 70
     1
102
RTVSPropertyOp18
 70
     1
102
RTVSPropertyOp19
 70
     1
102
RTVSPropertyOp20
 70
     1
102
RTVSPropertyOp21
 70
     1
102
RTVSPropertyOp22
 70
     1
102
RTVSPropertyOp23
 70
     1
102
RTVSPropertyOp24
 70
     1
102
RTVSPropertyOp25
 70
     1
102
RTVSPropertyOp26
 70
     1
102
RTVSPropertyOp27
 70
     1
102
RTVSPropertyOp28
 70
     1
102
RTVSPropertyOp29
 70
     1
102
RTVSPropertyOp30
 70
     1
102
RTVSPropertyOp31
 70
     1
102
RTVSPropertyOp32
 70
     1
  0
XRECORD
  5
602
102
{ACAD_REACTORS
330
601
102
}
330
601
100
AcDbXrecord
280
     1
102
RTVSPropertyOp0
 70
     1
102
RTVSPropertyOp1
 70
     1
102
RTVSPropertyOp2
 70
     1
102
RTVSPropertyOp3
 70
     1
102
RTVSPropertyOp4
 70
     1
102
RTVSPropertyOp5
 70
     1
102
RTVSPropertyOp6
 70
     1
102
RTVSPropertyOp7
 70
     1
102
RTVSPropertyOp8
 70
     1
102
RTVSPropertyOp9
 70
     1
102
RTVSPropertyOp10
 70
     1
102
RTVSPropertyOp11
 70
     1
102
RTVSPropertyOp12
 70
     1
102
RTVSPropertyOp13
 70
     1
102
RTVSPropertyOp14
 70
     1
102
RTVSPropertyOp15
 70
     1
102
RTVSPropertyOp16
 70
     1
102
RTVSPropertyOp17
 70
     1
102
RTVSPropertyOp18
 70
     1
102
RTVSPropertyOp19
 70
     1
102
RTVSPropertyOp20
 70
     1
102
RTVSPropertyOp21
 70
     1
102
RTVSPropertyOp22
 70
     1
102
RTVSPropertyOp23
 70
     1
102
RTVSPropertyOp24
 70
     1
102
RTVSPropertyOp25
 70
     1
102
RTVSPropertyOp26
 70
     1
102
RTVSPropertyOp27
 70
     1
102
RTVSPropertyOp28
 70
     1
102
RTVSPropertyOp29
 70
     1
102
RTVSPropertyOp30
 70
     1
102
RTVSPropertyOp31
 70
     1
102
RTVSPropertyOp32
 70
     1
  0
XRECORD
  5
60A
102
{ACAD_REACTORS
330
609
102
}
330
609
100
AcDbXrecord
280
     1
102
RTVSPropertyOp0
 70
     1
102
RTVSPropertyOp1
 70
     1
102
RTVSPropertyOp2
 70
     1
102
RTVSPropertyOp3
 70
     1
102
RTVSPropertyOp4
 70
     1
102
RTVSPropertyOp5
 70
     1
102
RTVSPropertyOp6
 70
     1
102
RTVSPropertyOp7
 70
     1
102
RTVSPropertyOp8
 70
     1
102
RTVSPropertyOp9
 70
     1
102
RTVSPropertyOp10
 70
     1
102
RTVSPropertyOp11
 70
     1
102
RTVSPropertyOp12
 70
     1
102
RTVSPropertyOp13
 70
     1
102
RTVSPropertyOp14
 70
     1
102
RTVSPropertyOp15
 70
     1
102
RTVSPropertyOp16
 70
     1
102
RTVSPropertyOp17
 70
     1
102
RTVSPropertyOp18
 70
     1
102
RTVSPropertyOp19
 70
     1
102
RTVSPropertyOp20
 70
     1
102
RTVSPropertyOp21
 70
     1
102
RTVSPropertyOp22
 70
     1
102
RTVSPropertyOp23
 70
     1
102
RTVSPropertyOp24
 70
     1
102
RTVSPropertyOp25
 70
     1
102
RTVSPropertyOp26
 70
     1
102
RTVSPropertyOp27
 70
     1
102
RTVSPropertyOp28
 70
     1
102
RTVSPropertyOp29
 70
     1
102
RTVSPropertyOp30
 70
     1
102
RTVSPropertyOp31
 70
     1
102
RTVSPropertyOp32
 70
     1
  0
XRECORD
  5
5EE
102
{ACAD_REACTORS
330
5ED
102
}
330
5ED
100
AcDbXrecord
280
     1
102
RTVSPropertyOp0
 70
     1
102
RTVSPropertyOp1
 70
     1
102
RTVSPropertyOp2
 70
     1
102
RTVSPropertyOp3
 70
     1
102
RTVSPropertyOp4
 70
     1
102
RTVSPropertyOp5
 70
     1
102
RTVSPropertyOp6
 70
     1
102
RTVSPropertyOp7
 70
     1
102
RTVSPropertyOp8
 70
     1
102
RTVSPropertyOp9
 70
     1
102
RTVSPropertyOp10
 70
     1
102
RTVSPropertyOp11
 70
     1
102
RTVSPropertyOp12
 70
     1
102
RTVSPropertyOp13
 70
     1
102
RTVSPropertyOp14
 70
     1
102
RTVSPropertyOp15
 70
     1
102
RTVSPropertyOp16
 70
     1
102
RTVSPropertyOp17
 70
     1
102
RTVSPropertyOp18
 70
     1
102
RTVSPropertyOp19
 70
     1
102
RTVSPropertyOp20
 70
     1
102
RTVSPropertyOp21
 70
     1
102
RTVSPropertyOp22
 70
     1
102
RTVSPropertyOp23
 70
     1
102
RTVSPropertyOp24
 70
     1
102
RTVSPropertyOp25
 70
     1
102
RTVSPropertyOp26
 70
     1
102
RTVSPropertyOp27
 70
     1
102
RTVSPropertyOp28
 70
     1
102
RTVSPropertyOp29
 70
     1
102
RTVSPropertyOp30
 70
     1
102
RTVSPropertyOp31
 70
     1
102
RTVSPropertyOp32
 70
     1
  0
XRECORD
  5
5F0
102
{ACAD_REACTORS
330
5EF
102
}
330
5EF
100
AcDbXrecord
280
     1
102
RTVSPropertyOp0
 70
     1
102
RTVSPropertyOp1
 70
     1
102
RTVSPropertyOp2
 70
     1
102
RTVSPropertyOp3
 70
     1
102
RTVSPropertyOp4
 70
     1
102
RTVSPropertyOp5
 70
     1
102
RTVSPropertyOp6
 70
     1
102
RTVSPropertyOp7
 70
     1
102
RTVSPropertyOp8
 70
     1
102
RTVSPropertyOp9
 70
     1
102
RTVSPropertyOp10
 70
     1
102
RTVSPropertyOp11
 70
     1
102
RTVSPropertyOp12
 70
     1
102
RTVSPropertyOp13
 70
     1
102
RTVSPropertyOp14
 70
     1
102
RTVSPropertyOp15
 70
     1
102
RTVSPropertyOp16
 70
     1
102
RTVSPropertyOp17
 70
     1
102
RTVSPropertyOp18
 70
     1
102
RTVSPropertyOp19
 70
     1
102
RTVSPropertyOp20
 70
     1
102
RTVSPropertyOp21
 70
     1
102
RTVSPropertyOp22
 70
     1
102
RTVSPropertyOp23
 70
     1
102
RTVSPropertyOp24
 70
     1
102
RTVSPropertyOp25
 70
     1
102
RTVSPropertyOp26
 70
     1
102
RTVSPropertyOp27
 70
     1
102
RTVSPropertyOp28
 70
     1
102
RTVSPropertyOp29
 70
     1
102
RTVSPropertyOp30
 70
     1
102
RTVSPropertyOp31
 70
     1
102
RTVSPropertyOp32
 70
     1
  0
XRECORD
  5
5F2
102
{ACAD_REACTORS
330
5F1
102
}
330
5F1
100
AcDbXrecord
280
     1
102
RTVSPropertyOp0
 70
     1
102
RTVSPropertyOp1
 70
     1
102
RTVSPropertyOp2
 70
     1
102
RTVSPropertyOp3
 70
     1
102
RTVSPropertyOp4
 70
     1
102
RTVSPropertyOp5
 70
     1
102
RTVSPropertyOp6
 70
     1
102
RTVSPropertyOp7
 70
     1
102
RTVSPropertyOp8
 70
     1
102
RTVSPropertyOp9
 70
     1
102
RTVSPropertyOp10
 70
     1
102
RTVSPropertyOp11
 70
     1
102
RTVSPropertyOp12
 70
     1
102
RTVSPropertyOp13
 70
     1
102
RTVSPropertyOp14
 70
     1
102
RTVSPropertyOp15
 70
     1
102
RTVSPropertyOp16
 70
     1
102
RTVSPropertyOp17
 70
     1
102
RTVSPropertyOp18
 70
     1
102
RTVSPropertyOp19
 70
     1
102
RTVSPropertyOp20
 70
     1
102
RTVSPropertyOp21
 70
     1
102
RTVSPropertyOp22
 70
     1
102
RTVSPropertyOp23
 70
     1
102
RTVSPropertyOp24
 70
     1
102
RTVSPropertyOp25
 70
     1
102
RTVSPropertyOp26
 70
     1
102
RTVSPropertyOp27
 70
     1
102
RTVSPropertyOp28
 70
     1
102
RTVSPropertyOp29
 70
     1
102
RTVSPropertyOp30
 70
     1
102
RTVSPropertyOp31
 70
     1
102
RTVSPropertyOp32
 70
     1
  0
XRECORD
  5
5F4
102
{ACAD_REACTORS
330
5F3
102
}
330
5F3
100
AcDbXrecord
280
     1
102
RTVSPropertyOp0
 70
     1
102
RTVSPropertyOp1
 70
     1
102
RTVSPropertyOp2
 70
     1
102
RTVSPropertyOp3
 70
     1
102
RTVSPropertyOp4
 70
     1
102
RTVSPropertyOp5
 70
     1
102
RTVSPropertyOp6
 70
     1
102
RTVSPropertyOp7
 70
     1
102
RTVSPropertyOp8
 70
     1
102
RTVSPropertyOp9
 70
     1
102
RTVSPropertyOp10
 70
     1
102
RTVSPropertyOp11
 70
     1
102
RTVSPropertyOp12
 70
     1
102
RTVSPropertyOp13
 70
     1
102
RTVSPropertyOp14
 70
     1
102
RTVSPropertyOp15
 70
     1
102
RTVSPropertyOp16
 70
     1
102
RTVSPropertyOp17
 70
     1
102
RTVSPropertyOp18
 70
     1
102
RTVSPropertyOp19
 70
     1
102
RTVSPropertyOp20
 70
     1
102
RTVSPropertyOp21
 70
     1
102
RTVSPropertyOp22
 70
     1
102
RTVSPropertyOp23
 70
     1
102
RTVSPropertyOp24
 70
     1
102
RTVSPropertyOp25
 70
     1
102
RTVSPropertyOp26
 70
     1
102
RTVSPropertyOp27
 70
     1
102
RTVSPropertyOp28
 70
     1
102
RTVSPropertyOp29
 70
     1
102
RTVSPropertyOp30
 70
     1
102
RTVSPropertyOp31
 70
     1
102
RTVSPropertyOp32
 70
     1
  0
XRECORD
  5
608
102
{ACAD_REACTORS
330
607
102
}
330
607
100
AcDbXrecord
280
     1
102
RTVSPropertyOp0
 70
     1
102
RTVSPropertyOp1
 70
     1
102
RTVSPropertyOp2
 70
     1
102
RTVSPropertyOp3
 70
     1
102
RTVSPropertyOp4
 70
     1
102
RTVSPropertyOp5
 70
     1
102
RTVSPropertyOp6
 70
     1
102
RTVSPropertyOp7
 70
     1
102
RTVSPropertyOp8
 70
     1
102
RTVSPropertyOp9
 70
     1
102
RTVSPropertyOp10
 70
     1
102
RTVSPropertyOp11
 70
     1
102
RTVSPropertyOp12
 70
     1
102
RTVSPropertyOp13
 70
     1
102
RTVSPropertyOp14
 70
     1
102
RTVSPropertyOp15
 70
     1
102
RTVSPropertyOp16
 70
     1
102
RTVSPropertyOp17
 70
     1
102
RTVSPropertyOp18
 70
     1
102
RTVSPropertyOp19
 70
     1
102
RTVSPropertyOp20
 70
     1
102
RTVSPropertyOp21
 70
     1
102
RTVSPropertyOp22
 70
     1
102
RTVSPropertyOp23
 70
     1
102
RTVSPropertyOp24
 70
     1
102
RTVSPropertyOp25
 70
     1
102
RTVSPropertyOp26
 70
     1
102
RTVSPropertyOp27
 70
     1
102
RTVSPropertyOp28
 70
     1
102
RTVSPropertyOp29
 70
     1
102
RTVSPropertyOp30
 70
     1
102
RTVSPropertyOp31
 70
     1
102
RTVSPropertyOp32
 70
     1
  0
XRECORD
  5
5FE
102
{ACAD_REACTORS
330
5FD
102
}
330
5FD
100
AcDbXrecord
280
     1
102
RTVSPropertyOp0
 70
     1
102
RTVSPropertyOp1
 70
     1
102
RTVSPropertyOp2
 70
     1
102
RTVSPropertyOp3
 70
     1
102
RTVSPropertyOp4
 70
     1
102
RTVSPropertyOp5
 70
     1
102
RTVSPropertyOp6
 70
     1
102
RTVSPropertyOp7
 70
     1
102
RTVSPropertyOp8
 70
     1
102
RTVSPropertyOp9
 70
     1
102
RTVSPropertyOp10
 70
     1
102
RTVSPropertyOp11
 70
     1
102
RTVSPropertyOp12
 70
     1
102
RTVSPropertyOp13
 70
     1
102
RTVSPropertyOp14
 70
     1
102
RTVSPropertyOp15
 70
     1
102
RTVSPropertyOp16
 70
     1
102
RTVSPropertyOp17
 70
     1
102
RTVSPropertyOp18
 70
     1
102
RTVSPropertyOp19
 70
     1
102
RTVSPropertyOp20
 70
     1
102
RTVSPropertyOp21
 70
     1
102
RTVSPropertyOp22
 70
     1
102
RTVSPropertyOp23
 70
     1
102
RTVSPropertyOp24
 70
     1
102
RTVSPropertyOp25
 70
     1
102
RTVSPropertyOp26
 70
     1
102
RTVSPropertyOp27
 70
     1
102
RTVSPropertyOp28
 70
     1
102
RTVSPropertyOp29
 70
     1
102
RTVSPropertyOp30
 70
     1
102
RTVSPropertyOp31
 70
     1
102
RTVSPropertyOp32
 70
     1
  0
XRECORD
  5
606
102
{ACAD_REACTORS
330
605
102
}
330
605
100
AcDbXrecord
280
     1
102
RTVSPropertyOp0
 70
     1
102
RTVSPropertyOp1
 70
     1
102
RTVSPropertyOp2
 70
     1
102
RTVSPropertyOp3
 70
     1
102
RTVSPropertyOp4
 70
     1
102
RTVSPropertyOp5
 70
     1
102
RTVSPropertyOp6
 70
     1
102
RTVSPropertyOp7
 70
     1
102
RTVSPropertyOp8
 70
     1
102
RTVSPropertyOp9
 70
     1
102
RTVSPropertyOp10
 70
     1
102
RTVSPropertyOp11
 70
     1
102
RTVSPropertyOp12
 70
     1
102
RTVSPropertyOp13
 70
     1
102
RTVSPropertyOp14
 70
     1
102
RTVSPropertyOp15
 70
     1
102
RTVSPropertyOp16
 70
     1
102
RTVSPropertyOp17
 70
     1
102
RTVSPropertyOp18
 70
     1
102
RTVSPropertyOp19
 70
     1
102
RTVSPropertyOp20
 70
     1
102
RTVSPropertyOp21
 70
     1
102
RTVSPropertyOp22
 70
     1
102
RTVSPropertyOp23
 70
     1
102
RTVSPropertyOp24
 70
     1
102
RTVSPropertyOp25
 70
     1
102
RTVSPropertyOp26
 70
     1
102
RTVSPropertyOp27
 70
     1
102
RTVSPropertyOp28
 70
     1
102
RTVSPropertyOp29
 70
     1
102
RTVSPropertyOp30
 70
     1
102
RTVSPropertyOp31
 70
     1
102
RTVSPropertyOp32
 70
     1
  0
ENDSEC
  0
EOF
